<?xml version="1.0" standalone="no"?>
<!DOCTYPE svg PUBLIC "-//W3C//DTD SVG 1.1//EN" "http://www.w3.org/Graphics/SVG/1.1/DTD/svg11.dtd" >
<svg xmlns="http://www.w3.org/2000/svg">
<metadata>Generated by IcoMoon</metadata>
<defs>
<font id="icomoon" horiz-adv-x="1024">
<font-face units-per-em="1024" ascent="960" descent="-64" />
<missing-glyph horiz-adv-x="1024" />
<glyph unicode="&#x20;" horiz-adv-x="512" d="" />
<glyph unicode="&#xe000;" glyph-name="user-female" d="M960.032 157.312l-278.497 132.064c37.152 18.624 182.256 24.528 194.256 57.28 0 0-57.344 88.016-71.344 202.336-5.44 44.368-14.752 102.592-24 184.592-15.008 133.008-126.88 226.416-268.191 226.416h-0.512c-141.312 0-253.184-93.408-268.176-226.4-9.248-82-18.56-140.224-24.001-184.592-14-114.336-71.344-202.336-71.344-202.336 12-32.752 157.088-38.656 194.256-57.28l-278.512-132.080s-63.968-22.464-63.968-75.472v-84.528c0-35.376 28.624-61.312 63.968-61.312h896.064c35.344 0 63.968 25.936 63.968 61.312v84.528c0 53.008-63.968 75.472-63.967 75.472zM63.999 0v81.84c0 3.408 12.096 11.601 21.935 15.345 2.128 0.752 3.44 1.344 5.44 2.319l278.496 132.064c22.128 10.464 36.32 32.688 36.593 57.151 0.256 24.464-13.44 46.976-35.313 57.935-21.68 10.88-50.336 16.256-95.248 24.032-10.656 1.872-25.216 4.496-39.344 7.313 18.32 41.104 38.56 98.593 46.528 163.633 1.968 16.192 4.496 34.416 7.313 54.592 4.848 34.336 10.848 77.872 16.752 130.224 11.168 98.864 95.28 169.553 204.592 169.553h0.512c109.312 0 193.439-70.688 204.592-169.568 5.904-52.336 11.904-95.888 16.752-130.224 2.816-20.176 5.345-38.399 7.313-54.592 7.968-65.024 28.224-122.513 46.527-163.633-14.128-2.816-28.688-5.44-39.344-7.313-44.912-7.776-73.568-13.152-95.248-24.032-21.872-10.976-35.568-33.472-35.313-57.936 0.288-24.464 14.464-46.688 36.592-57.151l278.496-132.064c2-0.976 3.312-1.567 5.439-2.319 9.84-3.744 20.496-11.937 21.937-15.345l0.032-81.824h-896.032z" />
<glyph unicode="&#xe001;" glyph-name="people" d="M746 124.72l-201.471 111.602c74.88 58.912 95.216 174.688 95.216 239.601v135.12c0 89.472-118.88 189.12-238.288 189.12-119.376 0-241.408-99.664-241.408-189.12v-135.12c0-59.024 24.976-178.433 100.624-239.089l-206.672-112.112s-54-24.064-54-54.064v-81.088c0-29.84 24.224-54.063 54-54.063h692c29.808 0 54.031 24.224 54.031 54.063v81.088c0 31.808-54.032 54.063-54.032 54.063zM736.033-0.495h-672.031v57.216c4.592 3.344 11.008 7.216 16.064 9.536 1.504 0.688 3.008 1.408 4.432 2.225l206.688 112.096c18.848 10.224 31.344 29.184 33.248 50.527s-7.008 42.256-23.712 55.664c-53.664 43.024-76.656 138.32-76.656 189.152v135.12c0 45.968 86.656 125.12 177.408 125.12 92.432 0 174.288-78.064 174.288-125.12v-135.12c0-50.128-15.568-145.84-70.784-189.28-16.912-13.312-26-34.224-24.224-55.664 1.808-21.44 14.256-40.528 33.12-50.849l201.472-111.6c1.776-0.976 4.032-2.031 5.904-2.848 4.72-2 10.527-5.344 14.783-8.288v-57.888zM969.97 284.064l-204.465 111.601c74.88 58.912 98.224 174.688 98.224 239.601v135.12c0 89.472-121.872 190.128-241.28 190.128-77.6 0-156.943-42.192-203.119-96.225 26.336-1.632 55.376-1.664 80.464-9.664 33.712 26.256 76.368 41.872 122.656 41.872 92.432 0 177.279-79.056 177.279-126.128v-135.12c0-50.128-18.56-145.84-73.775-189.28-16.912-13.312-26-34.224-24.224-55.664 1.808-21.44 14.256-40.528 33.12-50.849l204.464-111.6c1.776-0.976 4.032-2.031 5.904-2.848 4.72-2 10.527-5.344 14.783-8.288v-56.912h-129.184c19.504-14.72 25.408-35.775 32.977-63.999h106.192c29.808 0 54.031 24.224 54.031 54.063v80.096c-0.016 31.84-54.048 54.096-54.048 54.096z" />
<glyph unicode="&#xe002;" glyph-name="user-follow" d="M64.064 65.312c0 25.44 19.091 33.405 26.723 36.941l281.040 132.624c20.144 9.248 34.048 28.32 36.752 50.32 2.72 22-6.16 43.84-23.456 57.712-66.481 53.376-97.456 170.688-97.456 233.185v159.904c0 66.864 116.4 159.856 224.128 159.856 108.672 0 223.92-91.536 223.92-159.856v-159.92c0-61.552-25.6-179.312-94.256-233.359-17.504-13.776-26.592-35.681-23.968-57.809 2.624-22.16 16.592-41.313 36.848-50.624l95.92-45.504 15.808 63.872-85.008 39.776c88.656 69.776 118.656 206.832 118.656 283.648v159.92c0 105.92-146.624 223.855-287.92 223.855-141.312 0-288.129-117.936-288.129-223.855v-159.92c0-69.872 31.888-211.248 121.392-283.088l-281.040-132.624s-63.952-28.496-63.952-63.968v-96.032c0-35.344 28.64-63.968 63.951-63.968h703.92v64l-703.872-0.032v64.944zM991.939 128.125h-96v96c0 17.68-14.336 32-32 32s-32-14.32-32-32v-96h-96c-17.664 0-32-14.32-32-32 0-17.664 14.336-32 32-32h96v-96c0-17.664 14.336-32 32-32s32 14.336 32 32v96h96c17.664 0 32 14.336 32 32 0 17.68-14.32 32-32 32z" />
<glyph unicode="&#xe003;" glyph-name="user-following" d="M63.504 0.24l0.002 64.941c0 25.44 19.104 33.425 26.72 36.944l281.040 132.624c20.144 9.248 34.048 28.32 36.752 50.32 2.72 22-6.16 43.84-23.456 57.712-66.481 53.376-97.456 170.704-97.456 233.185v159.92c0 66.864 116.4 159.856 224.128 159.856 108.672 0 223.936-91.536 223.936-159.856v-159.92c0-61.552-25.6-179.312-94.256-233.376-17.504-13.776-26.592-35.681-23.968-57.809 2.624-22.16 16.592-41.313 36.848-50.624l162.24-77.248 38.144 54.065-173.664 81.344c88.656 69.776 118.656 206.849 118.656 283.665v159.92c0 105.92-146.624 223.855-287.936 223.855s-288.128-117.936-288.128-223.855v-159.92c0-69.872 31.888-211.248 121.392-283.088l-281.040-132.656s-63.952-28.496-63.952-63.968v-96.032c0-35.344 28.64-63.968 63.951-63.968h639.712l-52 63.984zM1012.21 236.493c-13.904 10.912-34.032 8.432-44.912-5.473l-136.848-208.704-85.056 85.072c-12.496 12.496-32.769 12.496-45.265 0s-12.496-32.752 0-45.248l113.136-113.136c12.496-12.496 32.752-12.496 45.248 0 3.040 3.024 5.313 6.544 6.881 10.288l152.304 232.304c10.88 13.904 8.432 34.017-5.488 44.897z" />
<glyph unicode="&#xe004;" glyph-name="user-unfollow" d="M799.12 576.144l0.001 159.92c0 105.92-146.608 223.855-287.904 223.855-141.312 0-288.128-117.936-288.128-223.855v-159.92c0-69.872 31.888-211.232 121.392-283.072l-281.040-132.64s-63.952-28.496-63.952-63.968v-96.032c0-35.344 28.64-63.968 63.951-63.968h607.936v64l-607.888-0.032v64.944c0 25.44 19.103 33.425 26.72 36.944l281.040 132.624c20.144 9.248 34.048 28.336 36.752 50.336 2.72 22-6.16 43.824-23.456 57.696-66.481 53.376-97.456 170.688-97.456 233.199v159.92c0 66.864 116.4 159.856 224.128 159.856 108.688 0 223.904-91.536 223.904-159.856v-159.92c0-61.552-25.6-179.328-94.224-233.36-17.536-13.76-26.624-35.664-23.968-57.792 2.592-22.16 16.56-41.313 36.848-50.624l18.112-8.352 28.064 51.792-19.488 14.72c88.656 69.728 118.656 206.768 118.656 283.584zM924.625 81.199l90.496 90.512c12.496 12.464 12.496 32.752 0 45.248-12.481 12.481-32.753 12.481-45.233 0l-90.512-90.528-90.496 90.528c-12.496 12.481-32.769 12.481-45.249 0-12.496-12.496-12.496-32.784 0-45.248l90.496-90.512-90.496-90.496c-12.496-12.48-12.496-32.769 0-45.265 12.481-12.464 32.753-12.464 45.249 0l90.496 90.512 90.512-90.512c12.481-12.464 32.753-12.464 45.233 0 12.496 12.496 12.496 32.784 0 45.265z" />
<glyph unicode="&#xe005;" glyph-name="user" d="M511.728 896c108.672 0 223.92-91.534 223.92-159.854v-159.92c0-61.552-25.6-179.312-94.256-233.376-17.504-13.776-26.592-35.681-23.968-57.809 2.624-22.16 16.592-41.313 36.848-50.625l278.496-132.064c2.176-0.992 26.688-5.104 26.688-39.345l0.032-62.464-895.488-0.048v64.944c0 25.44 19.088 33.425 26.72 36.944l281.024 132.624c20.16 9.248 34.065 28.32 36.769 50.32 2.72 22-6.16 43.84-23.456 57.712-66.481 53.376-97.456 170.704-97.456 233.185v159.92c0.016 66.848 116.416 159.855 224.128 159.854zM511.728 960.002c-141.312 0-288.127-117.938-288.127-223.857v-159.92c0-69.872 31.888-211.248 121.392-283.088l-281.040-132.64s-63.952-28.496-63.952-63.968v-96.032c0-35.344 28.64-63.968 63.951-63.968h895.552c35.344 0 63.968 28.624 63.968 63.968v96.032c0 37.6-63.968 63.968-63.968 63.968l-278.496 132.064c88.656 69.776 118.656 206.849 118.656 283.665v159.92c0 105.92-146.64 223.855-287.936 223.855v0z" />
<glyph unicode="&#xe006;" glyph-name="trophy" d="M735.808 32.128h-449.936c-17.68 0-32-14.32-32-32s14.32-32 32-32h449.936c17.68 0 32 14.32 32 32s-14.304 32-32 32zM1017.31 838.368c-3.024 14.88-16.159 25.568-31.343 25.568h-156.624v31.936c0 17.68-14.32 32-32 32h-575.536c-17.68 0-32-14.32-32-32v-31.936h-151.776c-15.184 0-28.319-10.688-31.344-25.568-0.944-4.624-22.4-116.752 39.903-193.152 35.84-43.92 90.607-66.928 162.495-68.976 40.992-121.152 144.064-210.864 268.192-224.24v-222.912h-95.776c-17.68 0-32-14.32-32-32s14.32-32 32-32h258.688c17.68 0 32 14.32 32 32s-14.32 32-32 32h-98.912v222.88c124.336 13.12 227.632 102.8 268.736 224.080 74.336 1.088 130.736 24.24 167.393 69.168 62.304 76.416 40.848 188.528 39.904 193.152zM96.401 685.44c-28.336 34.496-31.185 85.409-29.744 114.497h123.152v-108.032c0-17.296 1.6-34.16 3.936-50.769-43.68 4.080-76.447 18.832-97.344 44.304zM765.345 691.905c0-153.088-114.721-277.663-255.713-277.663-141.056 0-255.808 124.56-255.808 277.663v171.968h511.536v-171.968h-0.015zM927.6 685.442c-21.68-26.432-56.032-41.488-102.272-44.864 2.384 16.784 4.016 33.84 4.016 51.328v108.032h128c1.44-29.12-1.407-80-29.744-114.496z" />
<glyph unicode="&#xe007;" glyph-name="speedometer" d="M511.984 923.872c-281.968 0-511.345-229.408-511.345-511.376 0-177.152 89.68-339.185 239.903-433.408 14.944-9.472 34.689-4.88 44.097 10.096s4.88 34.72-10.096 44.096c-54.096 33.952-99.040 78.048-133.424 128.88l33.552 19.376c15.311 8.848 20.56 28.399 11.712 43.711-8.88 15.344-28.464 20.56-43.712 11.712l-33.6-19.392c-24.4 50.512-39.297 105.792-43.281 163.424h35.616c17.68 0 32 14.32 32 32s-14.32 32-32 32h-35.456c4.24 58.688 19.776 114.304 44.56 164.592l32.16-18.56c5.024-2.912 10.528-4.288 15.969-4.288 11.056 0 21.808 5.744 27.743 16 8.848 15.313 3.6 34.881-11.712 43.713l-31.84 18.368c32.112 46.832 72.864 87.296 119.984 119.023l18.016-31.2c5.936-10.288 16.688-16 27.743-16 5.44 0 10.944 1.376 15.969 4.288 15.312 8.848 20.56 28.399 11.712 43.712l-17.952 31.072c49.328 23.792 103.68 38.656 160.976 42.816v-39.872c0-17.68 14.32-32 32-32s32 14.32 32 32v40c58.592-4.080 114.128-19.392 164.384-43.951l-17.36-30.048c-8.848-15.312-3.6-34.88 11.712-43.712 5.024-2.912 10.528-4.288 15.969-4.288 11.056 0 21.808 5.712 27.743 16l17.28 29.936c46.688-31.776 87.072-72.144 118.88-118.816l-29.968-17.312c-15.312-8.848-20.56-28.399-11.712-43.711 5.936-10.288 16.688-16 27.743-16 5.44 0 10.944 1.376 15.969 4.288l30.128 17.392c24.592-50.273 39.952-105.824 44.048-164.433h-35.136c-17.68 0-32-14.32-32-32s14.32-32 32-32h35.12c-4.048-56.88-18.592-111.439-42.496-161.312l-31.68 18.288c-15.28 8.848-34.912 3.567-43.712-11.713-8.848-15.312-3.6-34.88 11.712-43.712l31.776-18.352c-35.103-52.24-81.439-97.393-137.359-131.824-15.056-9.28-19.712-29.008-10.464-44.032 6.064-9.808 16.528-15.216 27.28-15.216 5.712 0 11.536 1.536 16.752 4.752 152.464 93.904 243.472 256.784 243.472 435.632 0 281.952-229.408 511.36-511.376 511.36zM748.111 512.272c15.296 8.848 20.544 28.398 11.712 43.71-8.832 15.296-28.416 20.544-43.712 11.696l-173.824-100.352c-9.28 5.248-19.856 8.496-31.28 8.496-35.28 0-63.84-28.592-63.84-63.808 0-35.248 28.576-63.84 63.84-63.84 35.28 0 63.84 28.592 63.84 63.84 0 0.064-0.016 0.145-0.016 0.209z" />
<glyph unicode="&#xe008;" glyph-name="social-youtube" d="M940.736 770.304c-27.744 19.968-105.056 46.496-429.008 46.496-347.152 0-398.656-30.464-415.185-40.432-87.968-52.848-96.319-286.815-97.087-334.256 1.056-62.656 11.184-271.12 97.023-322.688 16.496-9.936 67.712-40.224 415.248-40.224 324.16 0 401.376 26.4 429.008 46.288 74.976 53.936 83.6 239.68 83.808 317.439-0.192 62.528-6.752 271.872-83.807 327.376zM903.36 177.424c-11.152-8.032-75.186-34.223-391.634-34.223-305.936 0-370.128 23.744-382.256 31.056-30.88 18.528-63.472 116.88-66.031 268.032 2.528 150.816 35.568 260.912 66.097 279.216 12.16 7.344 76.592 31.279 382.191 31.279 316.192 0 380.4-26.368 391.633-34.433 27.408-19.744 56.752-123.68 57.184-275.632-0.432-154.336-29.968-245.712-57.184-265.296zM720.415 473.17l-287.934 176.689c-9.904 5.968-22.225 6.128-32.257 0.464-10.065-5.68-16.288-16.336-16.288-27.872v-353.44c0-11.536 6.224-22.192 16.288-27.872 4.88-2.752 10.32-4.128 15.712-4.128 5.712 0 11.472 1.536 16.527 4.592l287.936 176.752c9.6 5.808 15.472 16.191 15.472 27.407s-5.856 21.632-15.456 27.408zM447.953 325.699v240.097l194-120.032z" />
<glyph unicode="&#xe009;" glyph-name="social-twitter" d="M684.4 801.312c52.88 0 100.621-21.636 134.253-56.372 41.84 8.096 81.28 22.848 116.721 43.279-13.712-41.632-42.88-76.56-80.815-98.655 37.12 4.368 72.656 13.904 105.632 28.16-24.72-35.744-55.84-67.216-91.775-92.368 0.336-7.632 0.528-15.344 0.528-23.023 0-235.728-185.008-507.615-523.312-507.615-103.84 0-200.56 29.632-281.903 80.224 14.368-1.68 29.008-2.527 43.84-2.527 86.16 0 165.504 28.496 228.464 76.4-80.528 1.376-148.496 53.008-171.808 123.84 11.216-2.096 22.752-3.216 34.624-3.216 16.72 0 33.008 2.16 48.399 6.256-84.128 16.336-147.536 88.448-147.536 174.929v2.288c24.816-13.376 53.152-21.408 83.345-22.336-49.376 32.032-81.84 86.561-81.84 148.465 0 32.72 9.088 63.376 24.912 89.632 90.689-107.872 226.208-178.912 379.088-186.384-3.152 13.024-4.784 26.784-4.784 40.624 0 98.544 82.352 178.4 183.967 178.4zM960.189 717.691v0zM684.397 865.308c-125.664 0-229.773-91.809-245.806-210.433-102.816 20.656-196.32 75.088-263.504 154.944-12.192 14.512-30.16 22.815-48.977 22.815-1.664 0-3.344-0.064-5.023-0.192-20.592-1.648-39.12-13.12-49.776-30.784-22.32-37.024-34.097-79.44-34.097-122.656 0-28.848 5.184-56.943 15.008-83.216-10.464-11.632-16.496-26.848-16.496-42.912v-2.288c0-62.688 24.784-120.864 65.936-164.464-2.368-10.976-1.84-22.464 1.776-33.472 14.192-43.184 40.032-80.399 73.536-108.751-22.496-5.008-45.712-7.536-69.408-7.536-12.528 0-24.721 0.688-36.257 2.097-2.56 0.32-5.088 0.433-7.632 0.433-26.88 0-51.28-16.944-60.336-42.784-9.936-28.32 1.089-59.712 26.561-75.568 94.528-58.816 203.712-89.872 315.712-89.872 364.032 0 583.008 284.976 587.264 563.344 29.792 24.656 56.128 53.185 78.448 85.152 8.128 10.688 12.96 24.032 12.96 38.496 0 21.776-10.895 41.024-27.487 52.593 7.184 24.624-1.009 51.28-21.009 67.568-11.68 9.504-26 14.336-40.4 14.336-11.008 0-22.032-2.816-31.968-8.561-21.152-12.192-43.776-21.841-67.601-28.785-43.105 32.432-96.545 50.496-151.425 50.497z" />
<glyph unicode="&#xe00a;" glyph-name="social-tumblr" d="M528.016 896.256l-0.002-223.871h224.32v-95.968h-223.328l-0.32-278.528c0-51.776 2.688-85.009 8.16-99.745 8.528-23.248 39.568-53.008 97.185-53.008 44.688 0 104.977 13.44 150.16 47.248v-149.312c-37.68-17.968-72.72-25.216-103.248-32.464-30.56-7.216-63.663-10.848-99.151-10.848-39.536 0-153.664 1.088-200.496 120.399-8.432 21.472-12.655 52.655-12.655 93.472v362.624h-128.848l0.624 98.128c42.656 0 170.624 25.904 170.624 221.872zM528.014 960.257l-116.976 0.002c-35.344 0-64-28.656-64-64 0-146.496-81.632-157.872-106.624-157.872-35.216 0-63.84-28.464-64-63.68l-0.624-98.128c-0.096-17.024 6.624-33.376 18.624-45.472 12.032-12.064 28.336-18.849 45.376-18.849h64.848v-298.624c0-49.376 5.6-87.632 17.088-116.88 28.848-73.44 97.376-161.009 260.064-161.009 40.288 0 78.592 4.224 113.872 12.56l7.056 1.664c29.872 7.024 68.032 15.776 109.008 35.313 22.288 10.624 36.464 33.088 36.464 57.776v149.312c0 24.224-13.68 46.367-35.344 57.215-9.056 4.56-18.88 6.783-28.656 6.783-13.568 0-27.057-4.32-38.337-12.752-38.096-28.528-86.848-34.496-111.808-34.496-25.6 0-35.119 9.28-37.215 11.744-1.088 5.024-4.128 23.776-4.128 77.009l0.224 214.528h159.408c35.344 0 64 28.656 64 64v95.968c0 35.344-28.656 64-64 64h-160.32v159.888c0 35.344-28.656 64-64 64v0z" />
<glyph unicode="&#xe00b;" glyph-name="social-facebook" d="M581.76 879.504c3.808 0 5.999-0.159 5.999-0.159h83.568l-0.432-96h-83.008c-45.68 0-44.624-39.008-44.624-39.008v-152.192h161.632l-22.56-95.872h-139.6v-479.776h-95.904l-0.064 479.776h-127.408l-0.256 95.872h127.712v149.184c0.016 130.080 108.048 138.176 134.944 138.176zM671.327 879.345v0zM581.76 943.505c-23.008 0-67.97-3.809-110.562-29.473-40.32-24.256-88.368-73.936-88.368-172.688v-85.184h-63.712c-17.008 0-33.312-6.784-45.344-18.816-12-12.064-18.72-28.368-18.655-45.408l0.256-95.872c0.128-35.248 28.752-63.776 64-63.776h63.408l0.064-415.776c0-35.344 28.656-64 64-64h95.904c35.344 0 64 28.656 64 64v415.776h75.6c28.4 0 53.408 18.72 61.408 45.968l22.56 95.872c5.68 19.344 1.903 40.256-10.192 56.368-12.064 16.16-31.057 25.664-51.217 25.664h-97.632v63.152l63.632 0.032c35.216 0 63.84 28.464 64 63.712l0.432 92.752c0.064 1.184 0.097 2.336 0.097 3.536 0 35.344-28.592 64-63.936 64h-81.936c-1.84 0.096-4.496 0.16-7.807 0.161z" />
<glyph unicode="&#xe00c;" glyph-name="social-dropbox" d="M1023.42 735.248c-0.72 10.224-6.287 19.474-14.976 24.914l-285.184 177.968c-11.6 7.216-26.432 6.319-37.056-2.289l-174.224-140.944-174.192 140.944c-10.592 8.56-25.536 9.535-37.056 2.287l-285.184-177.968c-8.688-5.44-14.257-14.688-14.977-24.912-0.752-10.224 3.472-20.159 11.312-26.751l165.216-138.816-141.536-111.184c-8.096-6.32-12.624-16.177-12.224-26.417s5.681-19.664 14.225-25.36l130.976-87.312c-6.432-5.84-10.544-14.208-10.544-23.6v-128.336c0-11.12 5.776-21.44 15.248-27.28l321.968-182.432c5.12-3.152 10.944-4.721 16.752-4.721s11.632 1.6 16.784 4.752l318.224 182.432c9.472 5.84 15.216 16.16 15.216 27.248v150.528c0 2.064-0.24 4.080-0.608 6.032l124.048 82.688c8.528 5.68 13.809 15.088 14.225 25.328 0.4 10.256-4.096 20.080-12.16 26.416l-140.912 111.152 165.312 138.88c7.856 6.592 12.080 16.527 11.328 26.751zM736.673 569.346l-224.688-140.784-224.688 140.784 224.688 146.224zM86.801 729.153l228.464 142.592 142.368-115.184-227.344-147.968zM229.921 529.777l225.969-141.6-128.064-98.032-218 145.312zM222.018 283.777l89.344-59.567c11.344-7.568 26.319-7.057 37.184 1.216l129.408 99.040v-282.8l-255.936 143.68v98.432zM798.209 185.346l-256.256-145.681v287.776l132.656-101.968c5.712-4.4 12.624-6.624 19.504-6.624 6.192 0 12.368 1.776 17.744 5.376l86.336 57.568v-96.448h0.016zM913.457 435.521l-218.031-145.327-127.44 97.936 226 141.632zM793.666 608.595l-227.345 147.968 142.4 115.184 228.464-142.592z" />
<glyph unicode="&#xe00d;" glyph-name="social-dribbble" d="M511.984 959.728c-69.856 0-136.464-14.111-197.184-39.567-2.112-0.672-4.177-1.552-6.145-2.672-181.264-78.816-308.384-259.553-308.384-469.505 0-282.16 229.568-511.712 511.712-511.712 282.192 0 511.744 229.568 511.744 511.712 0 282.192-229.552 511.744-511.744 511.744zM959.729 447.984c0-3.584-0.192-7.119-0.272-10.671-49.024 13.008-173.393 37.44-326.801 3.743-13.519 30.895-28.512 62.575-45.279 94.815-1.408 2.704-2.784 5.28-4.176 7.952 164.128 63.344 233.888 148.672 262.768 201.952 70.688-79.216 113.761-183.552 113.761-297.792zM797.537 792.562c-14.912-35.2-69.039-126-244.719-191.888-78.897 144.224-140.225 230.672-174.593 274.64 42.256 13.264 87.184 20.416 133.76 20.416 108.432 0 207.983-38.768 285.552-103.168zM316.050 850.481c27.216-33.28 90.384-117.056 175.104-270.447-200-60.288-362.448-53.040-418.832-47.792 26.816 140.144 119.072 257.312 243.729 318.239h-0.001zM64.273 447.986c0 6.896 0.21 13.745 0.53 20.577 19.248-1.936 49.152-4.079 88.288-4.079 86.895 0 217.712 10.752 369.008 58.144 2.848-5.376 5.664-10.736 8.544-16.272 14.432-27.776 27.487-55.185 39.407-82.065-27.376-8.608-55.392-19.072-83.872-31.969-182.624-82.704-268.192-200.704-298.673-252.336-76.272 80.32-123.232 188.752-123.232 308zM236.1 95.764c16.24 30.752 90.607 154.082 276.447 238.258 27.968 12.672 55.519 22.784 82.384 30.912 60.736-154.32 81.809-281.568 88.177-330.593-52.752-21.904-110.528-34.064-171.12-34.064-104.016 0-199.792 35.76-275.888 95.487zM743.618 64.966c-9.232 61.6-32.144 177.392-85.969 315.664 148.448 29.552 265.952 0.56 295.616-8.080-22.224-130.208-100.735-241.488-209.647-307.584z" />
<glyph unicode="&#xe00e;" glyph-name="shield" d="M907.952 815.52c-11.872 11.088-27.503 17.217-43.663 17.217-1.472 0-2.943-0.064-4.399-0.16-0.912-0.064-11.185-0.688-27.28-0.688-26.656 0-78.688 1.808-127.969 13.936-63.664 15.632-137.12 88.16-158.496 102.464-10.752 7.184-23.152 10.783-35.568 10.783-12.368 0-24.784-3.6-35.536-10.752-2.592-1.744-79.504-84.032-154.752-102.496-49.248-12.128-102.288-13.936-128.912-13.936-16.096 0-26.368 0.624-27.376 0.688-1.408 0.096-2.816 0.16-4.225 0.16-16.192 0-31.872-6.16-43.776-17.28-12.944-12.096-20.32-29.008-20.32-46.72v-160.032c0-591.632 387.12-667.808 403.568-670.783 3.744-0.656 7.536-1.008 11.313-1.008s7.601 0.336 11.313 1.008c16.432 2.976 406.399 79.151 406.399 670.783v160.032c0.032 17.744-7.344 34.688-20.319 46.784zM864.305 608.704c0-544.912-353.714-607.777-353.714-607.777s-350.88 62.88-350.88 607.776v160.032s12.096-0.848 31.68-0.848c33.568 0 90.032 2.464 144.16 15.775 88.624 21.744 175.024 111.408 175.024 111.408s90.256-89.664 178.784-111.408c54.192-13.312 109.681-15.775 143.249-15.775 19.568 0 31.681 0.848 31.681 0.848s0.016-20.352 0.016-160.031h0.001zM647.599 613.759c-12.496 12.496-32.769 12.496-45.249 0l-90.512-90.512-90.512 90.512c-12.496 12.496-32.769 12.496-45.265 0s-12.496-32.769 0-45.249l90.512-90.512-90.512-90.512c-12.496-12.481-12.496-32.753 0-45.249s32.769-12.496 45.265 0l90.512 90.512 90.512-90.512c12.481-12.496 32.753-12.496 45.249 0s12.496 32.769 0 45.249l-90.512 90.512 90.512 90.512c12.496 12.481 12.496 32.753 0 45.249z" />
<glyph unicode="&#xe00f;" glyph-name="screen-tablet" d="M832.144 960h-640.288c-53.024 0-96-42.976-96-96v-832c0-53.024 42.976-96 96-96h640.288c53.024 0 96 42.976 96 96v832c0 53.024-42.976 96-96 96zM864.144 32c0-17.664-14.336-32-32-32h-640.288c-17.664 0-32 14.336-32 32v832c0 17.664 14.336 32 32 32h640.288c17.664 0 32-14.336 32-32v-832zM512.048 159.824c-35.28 0-63.84-28.592-63.84-63.824s28.56-63.841 63.84-63.841c35.264 0 63.84 28.608 63.84 63.841s-28.576 63.824-63.84 63.824zM576.048 864h-128c-17.664 0-32-14.336-32-32s14.336-32 32-32h128c17.664 0 32 14.336 32 32s-14.336 32-32 32z" />
<glyph unicode="&#xe010;" glyph-name="screen-smartphone" d="M704.144 960h-384.288c-53.024 0-96-42.976-96-96v-832c0-53.024 42.976-96 96-96h384.288c53.024 0 96 42.976 96 96v832c0 53.024-42.976 96-96 96zM736.144 32c0-17.664-14.336-32-32-32h-384.288c-17.664 0-32 14.336-32 32v832c0 17.664 14.336 32 32 32h384.288c17.664 0 32-14.336 32-32v-832zM512.048 159.824c-35.28 0-63.84-28.592-63.84-63.824s28.576-63.841 63.84-63.841c35.28 0 63.84 28.608 63.84 63.841s-28.56 63.824-63.84 63.824zM576.048 864h-128c-17.664 0-32-14.336-32-32s14.336-32 32-32h128c17.664 0 32 14.336 32 32s-14.336 32-32 32z" />
<glyph unicode="&#xe011;" glyph-name="screen-desktop" d="M960 864.192h-896c-35.184 0-64-28.8-64-64v-544.192c0-35.184 28.816-63.983 64-63.983h416v-96.208h-160c-17.664 0-32-14.336-32-32s14.336-32 32-32h384c17.664 0 32 14.336 32 32s-14.336 32-32 32h-160v96.208h416c35.184 0 64 28.8 64 63.983v544.192c0 35.2-28.816 64-64 64zM960 256h-896v544.192h896v-544.192z" />
<glyph unicode="&#xe012;" glyph-name="plane" d="M934.32 894.096c10.432 0 17.776-1.938 21.601-3.41 4.592-12.224 10.752-56.031-34.528-101.343l-230.992-230.976 1.664-28.656c3.504-59.968 10-167.439 15.6-259.567 4.944-82 9.633-159.44 9.937-166.032 0.16-4.528 0.225-5.601-3.999-10.688-9.44-11.472-27.057-30.912-41.904-47.024-23.024 62.032-71.408 193.057-98.128 266.4l-34.336 94.368-71.024-71.024-130.608-125.584-18.192-18.16-0.56-25.68c-0.432-20.496-0.336-57.28-0.288-89.712 0.064-22.592 0.129-43.12-0.031-54.432-0.288-0.528 4.368-1.152 3.937-1.904-2.784 4.464-5.776 9.28-8.944 14.288-26.336 42-62.784 100.096-73.904 118.224l-8.128 13.28-13.344 8.064c-48.528 29.312-102.288 63.151-135.088 84.287 1.136 0.656 2.063-2.815 2.815-2.415h2.128c10.32 0 27.376-0.224 46.496-0.496 25.008-0.336 53.376-0.752 75.088-0.752 8.32 0 15.712 0.064 21.664 0.192l25.68 0.592 18.16 18.16 125.744 129.712 70.784 70.752-93.935 34.56c-70.592 25.968-205.808 76.464-269.056 100.224 16.224 14.944 35.775 32.688 47.184 42.129 3.184 2.624 5.664 3.968 7.376 3.968l2.256-0.064c7.056-0.336 94.688-6.063 179.407-11.6 89.935-5.872 191.439-12.496 249.151-16.16l28.848-1.808 231.024 231.040c32.448 32.4 64.32 37.248 80.449 37.248zM934.321 958.093c-37.808 0-84.222-14.526-125.678-55.998l-210.608-210.592c-118.624 7.504-422.432 27.6-429.968 27.808-1.344 0.064-3.008 0.129-4.88 0.129-10.256 0-27.968-1.968-48.128-18.624-23.664-19.568-73.008-65.969-73.008-65.969-11.904-11.936-17.936-26.72-16.496-40.624 0.88-8.4 5.439-23.712 26.064-31.776 12.528-4.912 211.904-79.504 303.969-113.376l-125.744-129.712c-5.568-0.128-12.465-0.192-20.257-0.192-38.336 0-97.776 1.248-121.601 1.248-3.152 0-5.681 0-7.473-0.064-7.248-0.224-22.256 3.345-61.84-29.743l-2.816-2.624c-11.872-11.872-14.656-23.712-14.912-31.536-0.256-8.064 1.904-19.681 13.568-29.024 7.008-5.664 96.848-63.184 170.527-107.68 17.664-28.816 98.944-158 103.185-165.008 6.192-10.464 16.32-16.432 28.433-16.815h1.008c11.776 0 23.872 5.84 35.712 17.344 33.504 39.184 28.88 55.407 29.023 62.224 0.528 21.376-0.368 111.936 0.399 147.84l130.592 125.6c33.376-91.68 106.336-289.008 111.216-301.567 8.128-20.624 23.44-25.152 31.841-26 1.376-0.16 2.784-0.225 4.16-0.225 12.624 0 25.712 5.936 36.432 16.655 0 0 46.256 49.088 65.904 72.976 19.68 23.872 18.912 44.256 18.528 53.872-0.16 6.656-18.688 308.816-25.568 426.816l210.656 210.656c74.656 74.688 62.784 164.688 35.057 192.368-12.24 12.304-37.024 21.615-67.297 21.616z" />
<glyph unicode="&#xe013;" glyph-name="notebook" d="M849.152 960h-637.999c-46 0-66.032-34-66.032-66v-127.312h-34.928c-17.311 0-31.344-14.032-31.344-31.345s14.032-31.344 31.344-31.344h34.928v-128.752h-31.936c-17.313 0-31.345-14.032-31.345-31.344s14.032-31.345 31.344-31.345h31.936v-129.44h-32.624c-17.311 0-31.344-14.032-31.344-31.344s14.032-31.344 31.344-31.344h32.624v-128.464h-32.624c-17.311 0-31.344-14.032-31.344-31.344s14.032-31.344 31.344-31.344h32.624v-129.28c0-53.024 41.536-64 64.528-64h639.504c53.024 0 96 42.976 96 96v832c0 53.024-42.96 96-96 96zM209.121 0l-0.001 129.279h33.344c17.312 0 31.344 14.032 31.344 31.344s-14.032 31.345-31.344 31.345h-33.344v128.464h33.344c17.312 0 31.344 14.032 31.344 31.344s-14.032 31.344-31.344 31.344h-33.344v129.44h34.032c17.313 0 31.345 14.032 31.345 31.345s-14.032 31.344-31.344 31.344h-34.032v128.752h31.024c17.312 0 31.344 14.032 31.344 31.344s-14.032 31.345-31.344 31.345h-31.024v127.312c0 0.752 0.064 1.376 0.16 1.936 0.496 0.032 1.12 0.064 1.872 0.064h510v-896h-512.032zM881.152 31.999c0-17.664-14.336-32-32-32h-64v896h64c17.664 0 32-14.336 32-32v-832z" />
<glyph unicode="&#xe014;" glyph-name="mustache" d="M792.848 223.28c-101.344 0-158.865 47.629-196.945 79.148-13.472 11.152-25.727 21.904-36.88 31.664-16.912 14.848-38 33.344-45.344 35.903-0.224 0-3.712 0.16-3.936 0.192-1.168-0.096-4.144-0.688-4.447-0.72-5.072-2.064-23.088-17.568-37.568-30-13.136-11.28-28.111-24.16-45.039-37.376l-3.088-2.368c-43.472-33.936-97.584-76.159-193.152-76.159-70.992 0-140.928 32.128-182.576 83.872-27.92 34.688-57.296 95.024-38.672 185.473 2.256 10.944 10.016 19.904 20.432 23.632 10.481 3.776 22.017 1.712 30.608-5.376 0.624-0.464 22.576-17.344 59.057-17.344 18.368 0 37.504 4.336 56.832 12.944 33.136 14.752 56.735 56.128 81.711 84.063 34.176 38.16 72.848 81.408 136.688 81.904 44.048 0 83.792-16.288 119.248-48.496 35.311 32.064 74.768 48.257 117.68 48.257 65.103-0.496 104.592-43.776 139.439-82 25.44-27.872 49.473-69.216 82.608-83.968 19.328-8.592 38.672-12.943 57.488-12.943 37.872 0 61.504 17.312 62.448 18.063 8.768 6.496 20.319 8.192 30.48 4.225 10.144-4 17.68-12.88 19.712-23.664 17.088-89.44-12.96-149.408-41.184-183.968-42.768-52.4-113.903-84.96-185.6-84.96zM510.733 434.125c0.992 0 3.683-0.095 4.627-0.19 0.032 0 4.688-0.336 4.688-0.368 0.336-0.032 3.008-0.368 3.296-0.433 23.152-3.28 44.624-22.128 77.216-50.688 10.704-9.408 22.496-19.744 35.472-30.496 34.784-28.816 78.097-64.656 156.816-64.656 53.312 0 105.743 23.632 136.783 61.68 20.4 24.976 31.009 54.72 31.681 88.784-15.024-4.688-33.28-8.192-54.32-8.192-27.664 0-55.568 6.192-82.977 18.368-45.248 20.096-76.304 69.12-103.68 99.152-34.528 37.872-57.473 61.088-92.081 61.376-46.16 0-75.952-29.056-94.416-50.912-6.032-7.12-14.816-11.216-24.097-11.216v0c-9.28 0-18.080 4.128-24.080 11.248-18.528 21.936-48.416 51.119-93.84 51.119-35.088-0.256-57.408-23.28-90.992-60.849-27.056-30.224-57.695-79.472-103.231-99.68-27.392-12.192-55.103-18.368-82.304-18.368-20.4 0-38.064 3.408-52.624 8.032-0.032-34.72 10.111-64.912 30.335-90.032 29.936-37.152 81.039-60.256 133.439-60.256 74 0 114.896 31.936 154.464 62.815l3.088 2.416c16.048 12.528 30.24 24.752 42.688 35.44 28.512 24.496 47.328 40.688 67.648 44.288v0c0.016-0.016 9.695 1.616 16.399 1.616z" />
<glyph unicode="&#xe015;" glyph-name="mouse" d="M513.584 960c-158.128 0-289.504-128.225-289.504-286.337v-451.312c0-158.128 131.376-286.352 289.504-286.352s286.352 128.224 286.352 286.336v451.328c0 158.112-128.224 286.336-286.352 286.336v0.001zM735.936 222.335c0-122.592-99.742-222.336-222.351-222.336s-225.505 99.744-225.505 222.336v451.328c0 122.592 102.912 222.336 225.504 222.336s222.352-99.744 222.352-222.336v-451.328zM512.338 767.999c-17.664 0-32-14.336-32-32v-160c0-17.664 14.336-32 32-32s32 14.336 32 32v160c0 17.664-14.336 32-32 32z" />
<glyph unicode="&#xe016;" glyph-name="magnet" d="M960.288 899.824v29.008c0 17.68-14.32 32-32 32h-224.624c-17.68 0-32-14.32-32-32v-130.656c0-0.048 0.032-0.096 0.032-0.144v-397.52c0-96.32-54.336-174.656-150.656-174.656s-168.656 78.336-168.656 174.656v499.312h-0.096v29.008c0 17.68-14.32 32-32 32h-224.624c-17.68 0-32-14.32-32-32v-130.656c0-0.656 0.336-1.2 0.368-1.84v-410.496c0-248.912 198.784-450.656 447.664-450.656s448.656 201.744 448.656 450.656v513.984zM896.288 896.832v-128.336h-160.256v128.336h160.256zM288.288 896.832v-128.336h-160.256v128.336h160.256zM511.68-0.832c-213.216 0-383.663 173.472-383.663 386.655v318.672h160.336v-303.984c0-131.808 100.848-238.655 232.655-238.655s214.672 106.848 214.672 238.655v303.984h160.656v-318.672c0-213.184-171.424-386.655-384.656-386.655z" />
<glyph unicode="&#xe017;" glyph-name="magic-wand" d="M1020.51 530.624l-102.783 153.678 51.152 178.816c3.184 11.216 0.063 23.28-8.225 31.504-8.256 8.256-20.256 11.312-31.536 8.031l-178.512-52.128-154.288 103.904c-9.712 6.528-22.16 7.313-32.464 1.937-10.368-5.312-17.024-15.871-17.408-27.503l-5.536-185.936-146.496-114.592c-9.184-7.184-13.712-18.815-11.872-30.319s9.808-21.088 20.815-25.023l137.456-49.28c-0.928-0.736-1.903-1.393-2.768-2.257l-530.752-530.752c-12.496-12.496-12.496-32.752 0-45.248 6.256-6.256 14.432-9.376 22.624-9.376s16.368 3.12 22.624 9.376l530.752 530.752c2.064 2.064 3.664 4.4 5.040 6.816l53.792-147.552c4-10.944 13.632-18.849 25.151-20.656 1.632-0.256 3.28-0.368 4.912-0.368 9.808 0 19.184 4.528 25.312 12.433l113.776 147.168 183.904 6.56c11.664 0.4 22.16 7.12 27.44 17.536 5.264 10.384 4.447 22.848-2.112 32.479zM794.049 537.454c-9.504-0.32-18.368-4.882-24.192-12.401l-87.472-113.104-48.976 134.32c-3.248 8.944-10.32 15.937-19.28 19.152l-134.592 48.256 112.624 88.064c7.504 5.872 11.968 14.752 12.288 24.256l4.256 142.944 118.592-79.872c7.904-5.312 17.776-6.815 26.849-4.191l137.248 40.096-39.344-137.472c-2.592-9.152-1.008-18.977 4.336-26.849l80.56-118.128z" />
<glyph unicode="&#xe018;" glyph-name="hourglass" d="M833.056 895.392h-64.465v-215.408c0-104.384-56.656-183.359-178.097-245.199 126.064-63.808 179.104-142.159 179.104-259.071 0-76.128-0.336-140-0.592-175.12h64.064c17.68 0 32-14.288 32-31.968s-14.32-32-32-32h-642.128c-17.68 0-32 14.32-32 32s14.32 31.968 32 31.968h65.935c-0.24 35.12-0.592 99.008-0.592 175.12 0 116.912 52.288 195.248 178.145 259.056-121.232 61.84-177.137 140.815-177.137 245.199v215.424h-66.352c-17.68 0-32 14.304-32 32 0 17.664 14.32 31.984 32 31.984h642.128c17.68 0 32-14.32 32-31.984-0.016-17.696-14.319-32-32.016-32zM320.271 175.712c0-76.288 0.353-140.224 0.593-175.12h384.176c0.224 34.912 0.592 98.848 0.592 175.12 0 89.008-33.12 158.032-193.185 224.4-160.016-66.368-192.176-135.393-192.176-224.4zM704.623 895.392h-383.359v-215.408c0-61.376 20.64-140.416 191.168-210.528 170.56 70.112 192.191 149.152 192.191 210.528v215.408z" />
<glyph unicode="&#xe019;" glyph-name="graduation" d="M990.848 263.696v258.144l16.096 8.496c10.464 5.44 17.056 16.225 17.184 28.032 0.128 11.776-6.256 22.688-16.592 28.368l-481.44 257.6c-9.632 5.28-21.28 5.248-30.977-0.096l-478.8-257.92c-10.192-5.68-16.496-16.464-16.432-28.16s6.496-22.4 16.816-27.969l210.384-111.984c-2.64-4.656-4.271-9.968-4.271-15.695v-270.784c0-9.12 3.904-17.84 10.721-23.904 6.944-6.16 73.44-60.096 276.752-60.096 202.592 0 270.88 50.976 278 56.783 7.44 6.064 11.744 15.152 11.744 24.784v277.728c0 4.496-0.944 8.769-2.608 12.641l129.424 68.368v-224.512c-18.976-11.103-31.84-31.472-31.84-55.023 0-35.344 28.656-64 64-64s64 28.656 64 64c0 23.696-13.040 44.144-32.16 55.2zM736.031 147.632c-25.152-12.096-91.712-35.904-225.744-35.904-134.88 0-199.936 25.344-223.472 37.536v237.136l207.808-110.624c4.72-2.56 9.968-3.84 15.184-3.84 5.088 0 10.192 1.216 14.816 3.664l211.408 111.664v-239.632zM510.063 340.19l-411.6 218.561 412.32 220.976 413.6-220.336z" />
<glyph unicode="&#xe01a;" glyph-name="ghost" d="M511.984 960.128c-229.216 0-415.681-199.903-415.681-445.6v-546.672c0-13.216 8.16-25.088 20.496-29.84 3.712-1.472 7.632-2.16 11.504-2.16 8.848 0 17.536 3.68 23.712 10.527l120.592 133.12 94.432-130.432c5.968-8.256 15.504-13.151 25.68-13.216h0.224c10.096 0 19.632 4.784 25.664 12.912l94.816 127.344 93.184-127.152c6.032-8.224 15.601-13.088 25.809-13.088 10.192 0 19.776 4.848 25.809 13.056l95.568 130.288 118-132.624c8.816-9.904 22.944-13.376 35.28-8.624 12.4 4.72 20.624 16.624 20.624 29.904v546.672c0 245.68-186.496 445.584-415.712 445.584zM863.695 51.969l-88.402 99.375c-6.432 7.216-15.808 11.312-25.407 10.688-9.664-0.464-18.592-5.248-24.319-13.024l-93.12-127.008-93.008 126.912c-6 8.192-15.536 13.057-25.68 13.089h-0.128c-10.128 0-19.632-4.784-25.664-12.912l-94.689-127.152-92 127.088c-5.664 7.808-14.528 12.655-24.16 13.151-0.592 0.032-1.151 0.064-1.743 0.064-9.008 0-17.632-3.808-23.712-10.527l-91.376-100.848v463.68c0 210.4 157.776 381.601 351.681 381.601 193.936 0 351.712-171.184 351.712-381.6v-462.576h0.016zM671.997 607.84c-35.28 0-63.84-28.592-63.84-63.808 0-35.248 28.56-63.84 63.84-63.84s63.84 28.592 63.84 63.84c0 35.216-28.56 63.808-63.84 63.808zM351.997 607.84c-35.28 0-63.84-28.592-63.84-63.808 0-35.248 28.576-63.84 63.84-63.84s63.84 28.592 63.84 63.84c0 35.216-28.56 63.808-63.84 63.808z" />
<glyph unicode="&#xe01b;" glyph-name="game-controller" d="M743.216 884.448c-25.6 12.016-49.806 23.328-71.838 34.384-56.464 28.288-107.664 42.032-156.464 42.032-98.288 0-166.304-56.704-208.96-99.36l-206.848-207.072c-110.688-110.8-128.368-223.6-57.265-365.808 11.024-22.080 22.368-46.336 34.368-72.032 64.704-138.384 131.584-281.487 241.056-281.487 3.072 0 6.112 0.096 9.216 0.336 112.976 8.848 145.023 154.288 173.312 282.592 4.496 20.32 8.752 39.809 13.12 57.28 7.6 30.208 22.56 48.976 63.552 90.063l5.632 5.664 3.472 3.472 9.12 9.088c41.088 41.088 59.856 56.032 90.096 63.664 17.312 4.352 36.752 8.64 57.024 13.088 128.224 28.304 273.6 60.368 282.399 173.521 8.88 114.832-138.464 183.84-280.992 250.575zM958.466 639.665c-6.224-79.776-184.813-103.324-291.102-129.98-47.008-11.872-75.616-36.752-118.784-79.936-3.008-3.008-6.032-6.016-9.088-9.071-3.024-3.024-6.032-6.097-9.057-9.089-43.168-43.216-68-71.808-79.824-118.88-26.672-106.384-50.191-285.168-129.871-291.44-1.44-0.112-2.881-0.145-4.321-0.145-84.544 0-155.68 192.24-218.447 317.664-63.744 127.504-36.433 210.224 45.359 292.096 15.696 15.727 35.216 35.247 59.136 59.183 24.432 24.464 53.487 53.552 87.919 88 23.904 23.936 43.408 43.424 59.12 59.184 50.8 50.848 101.936 80.64 163.92 80.64 37.808 0 79.632-11.056 127.872-35.248 127.456-63.904 323.888-136.48 317.168-222.978zM478.788 608.725h64v64h-64v-64zM478.788 704.725h64v64h-64v-64zM574.788 704.725h64v64h-64v-64zM574.788 608.725h64v64h-64v-64zM329.893 416.564l24.336 24.336c12 12 12 31.472 0 43.456-12 12-31.44 12-43.44 0l-24.352-24.352-24.352 24.352c-12 12-31.44 12-43.44 0s-12-31.456 0-43.456l24.352-24.352-24.352-24.352c-12-11.984-12-31.44 0-43.44s31.456-12 43.44 0l24.352 24.336 25.056-25.056c12-12 31.44-12 43.44 0s12 31.472 0 43.472z" />
<glyph unicode="&#xe01c;" glyph-name="fire" d="M508.416-63.28c-241.248 0-412.369 167.281-412.369 397.777 0 122.368 73.376 254.192 76.496 259.712 6.368 11.344 18.88 17.504 31.935 16.063 12.912-1.664 23.536-10.976 26.88-23.567 0.192-0.752 19.969-74.752 46.064-115.84 17.536-27.648 35.313-47.185 55.313-60.753-13.536 58.656-23.904 146.912-7.024 237.472 46.336 248.576 241.984 308.048 250.368 310.448 10.784 3.088 22.225 0.32 30.433-7.151 8.192-7.504 11.937-18.752 9.809-29.664-0.32-1.744-32.624-175.776 35.936-324.064 6.224-13.472 14.912-29.12 24.256-44.784 2.656 21.504 6.784 44.368 13.12 66.561 25.152 87.968 90.192 118 92.944 119.216 10.848 4.944 23.504 3.313 32.88-4.031 9.344-7.376 13.84-19.28 11.68-31.008-0.336-2.16-9.408-62.032 41.536-146.944 46-76.672 59.28-126.368 59.28-221.681 0-230.48-176.432-397.761-419.536-397.761zM195.695 492.32c-17.568-44.304-35.665-103.246-35.665-157.806 0-193.408 144.192-333.776 348.368-333.776 206 0 355.536 140.368 355.536 333.776 0 83.536-10.32 122.32-50.16 188.752-26.624 44.368-39.776 84.256-46.064 116-6.336-10.256-12.224-22.784-16.527-37.872-19.504-68.192-14.592-147.937-14.527-148.753 0.944-14.272-7.744-27.473-21.248-32.257s-28.528-0.064-36.816 11.663c-2.4 3.408-59.313 83.968-84.4 138.24-52.096 112.592-51.216 234.336-45.904 304.464-52.72-30.72-133.664-99.344-159.664-238.912-25.312-135.808 23.872-271.6 24.4-272.943 4.256-11.088 2-23.664-5.808-32.592-7.84-8.88-19.904-12.815-31.536-10.031-3.968 0.976-94.032 24.399-152.336 116.287-10.416 16.464-19.76 36.384-27.648 55.76z" />
<glyph unicode="&#xe01d;" glyph-name="eyeglass" d="M1025.38 308.208c-0.976 13.84-53.008 319.313-61.151 368.226-0.784 4.688-1.408 9.681-2.096 14.944-6.288 49.152-18.032 140.624-165.473 140.624-17.68 0-32-14.32-32-32s14.32-32 32-32c91.12 0 95.937-37.408 102.001-84.784 0.784-6.064 1.536-11.872 2.433-17.28 3.744-22.528 20.704-112.16 35.344-201.024-37.552 28.624-84.288 45.808-135.12 45.808-81.648 0-154.32-43.952-194.272-109.36-19.216 7.264-51.824 16.336-95.393 16.336-42.944 0-74.513-9.136-94.032-17.088-38.848 65.824-110.304 110.128-192.271 110.128-53.264 0-102.735-18.72-141.84-49.84 14.832 89.984 32.4 182.032 36.208 205.024 0.912 5.408 1.664 11.216 2.432 17.28 6.064 47.376 10.881 84.784 102.001 84.784 17.68 0 32 14.32 32 32s-14.32 32-32 32c-147.44 0-159.185-91.472-165.473-140.624-0.688-5.248-1.313-10.256-2.097-14.944-8.16-48.912-57.008-352.368-57.968-366.225-0.224-3.088 0.145-6.048 0.753-8.943-0.304-4.624-0.72-9.216-0.72-13.904 0-123.344 103.344-223.344 226.688-223.344s223.344 100 223.344 223.344c0 18.656-2.544 36.672-6.848 53.983 13.12 5.28 36.832 12.336 69.808 12.336 32.176 0 56.464-6.432 70.304-11.328-4.608-17.632-7.328-35.968-7.328-54.992 0-123.344 103.344-223.344 226.688-223.344s223.344 100 223.344 223.344c0 3.344-0.352 6.607-0.495 9.92 0.976 3.488 1.52 7.137 1.231 10.944zM225.344 128.018c-88.192 0-162.688 72.976-162.688 159.344s74.496 159.344 162.688 159.344c87.872 0 159.344-71.472 159.344-159.344s-71.472-159.344-159.344-159.344zM801.312 128.018c-88.192 0-162.689 72.977-162.689 159.346s74.496 159.344 162.688 159.344c76 0 139.632-53.488 155.456-124.784 0.656-6.528 1.2-12.672 1.616-18.288 0.192-2.688 0.912-5.217 1.84-7.665 0.16-2.88 0.433-5.712 0.433-8.624 0-87.856-71.472-159.328-159.344-159.328z" />
<glyph unicode="&#xe01e;" glyph-name="envelope-open" d="M1023.31 486.704c-1.36 11.312-5.614 21.713-12.095 30.465h0.16l-0.88 0.88c-3.28 4.32-7.12 8.128-11.408 11.504l-417.28 403.408c-36.224 36.224-99.504 36.288-135.776 0l-417.216-400.256c-9.024-8.4-28.881-31.089-28.881-53.345v-479.52c0-35.184 28.816-64 64-64h896c35.184 0 64 28.816 64 64v478.256c0.224 2.88-0.064 5.76-0.624 8.607zM269.794 233.665l-205.856-189.567v371.184zM335.569 207.281c2.288 1.52 4.465 3.248 6.369 5.408 0.368 0.416 0.624 0.912 0.96 1.344l141.168 130c7.248 5.84 15.84 8.912 24.88 8.912 9.184 0 18.367-3.216 24.527-8l383.6-345.104h-806.736zM757.458 229.442l202.48 179.696v-361.84zM103.778 517.171l387.501 370.544c6.064 6.032 14.097 9.376 22.625 9.376 8.56 0 16.592-3.344 22.656-9.376l361.376-344.352h-0.976l54.896-55.792-242.304-215.040-135.248 121.664c-37.68 29.536-91.775 30.816-131.68-1.376l-125.504-115.584-241.792 213.344 26.992 26.592h1.456z" />
<glyph unicode="&#xe01f;" glyph-name="envolope-letter" d="M1023.31 486.72c-1.36 11.312-5.614 21.713-12.095 30.465h0.16l-0.88 0.88c-3.28 4.32-7.12 8.128-11.408 11.504l-167.152 168.384v103.264c0 17.68-14.32 32-32 32h-101.328l-116.8 99.712c-36.224 36.224-99.504 36.288-135.776 0l-116.4-99.712h-105.696c-17.68 0-32-14.32-32-32v-105.376l-163.12-163.12c-17.344-11.472-28.88-31.088-28.88-53.344v-479.504c0-35.184 28.816-64 64-64h896c35.184 0 64 28.816 64 64v478.24c0.224 2.88-0.064 5.76-0.624 8.607zM268.865 234.497l-204.928-190.079v370.896zM330.562 204.498c4.224 1.808 8.129 4.527 11.377 8.224 1.712 1.936 3.056 4.063 4.224 6.256l137.904 127.936c7.248 5.84 15.84 8.912 24.88 8.912 9.184 0 18.367-3.216 24.527-8l383.84-347.936h-807.312zM758.339 230.274l201.6 178.896v-361.632zM897.938 543.378h-0.976l54.895-55.792-119.92-106.432v228.208zM491.283 887.682c6.064 6.032 14.095 9.376 22.623 9.376 8.56 0 16.592-3.344 22.656-9.376l64.624-54.464h-174.432zM767.938 769.218v-444.848l-57.312-50.88-136.32 123.568c-37.68 29.536-91.775 30.816-131.68-1.376l-126.624-117.44-60.065 53.008v437.968zM103.777 517.187l88.16 88.129v-217.616l-116.624 102.896 26.992 26.592h1.472z" />
<glyph unicode="&#xe020;" glyph-name="energy" d="M595.344 895.28v0zM595.344 895.28l-72.207-379.377 261.584-0.88-356.064-514.304 72.208 417.376-261.568 0.912zM595.393 959.279c-1.728 0-3.455-0.063-5.151-0.19-11.296-0.912-18.784-4.688-27.664-10.656-4.928-3.28-9.439-7.28-13.392-11.937-1.168-1.376-2.272-2.816-3.297-4.288l-358.608-474.608c-14.16-19.408-16.24-45.024-5.36-66.433 10.864-21.408 32.832-34.977 56.912-35.152l184.736-1.344-58.080-342.192c-5.52-29.408 10.16-58.721 37.76-70.528 8.224-3.536 16.863-5.216 25.392-5.216 20.112 0 36.641 9.408 49.041 26.4l359.056 514.304c14.16 19.408 16.225 45.057 5.36 66.433-10.864 21.408-32.832 34.977-56.912 35.152l-184.736 0.32 57.456 300.88c1.2 4.848 1.824 9.872 1.824 15.056 0 34.624-27.568 62.848-62.064 63.968-0.768 0.032-1.52 0.032-2.271 0.032v0z" />
<glyph unicode="&#xe021;" glyph-name="emotsmile" d="M781.264 352.848c-16.256 7.28-35.089-0.064-42.257-16.192-0.656-1.424-66.128-144.208-229.439-146.128-1.008 0-2-0.032-3.008-0.032-153.664 0-219.937 140.368-222.688 146.4-7.312 16-26.191 23.12-42.319 15.872-16.096-7.28-23.248-26.208-15.968-42.336 3.408-7.568 85.376-183.937 280.848-183.937 1.28 0 2.592 0.032 3.872 0.032 203.872 2.4 283.84 176.656 287.12 184.064 7.248 16.16-0.032 35.072-16.16 42.256zM511.999 959.999c-282.784 0-512-229.216-512-512s229.216-512 512-512 512 229.216 512 512-229.216 512-512 512zM511.999-0.001c-247.024 0-448 200.976-448 448s200.976 448 448 448 448-200.976 448-448-200.976-448-448-448zM351.503 480.175c35.264 0 63.84 28.592 63.84 63.824s-28.576 63.824-63.84 63.824c-35.28 0-63.84-28.592-63.84-63.824s28.56-63.824 63.84-63.824zM671.503 480.175c35.264 0 63.84 28.592 63.84 63.824s-28.576 63.824-63.84 63.824c-35.28 0-63.84-28.592-63.84-63.824s28.56-63.824 63.84-63.824z" />
<glyph unicode="&#xe022;" glyph-name="disc" d="M512 960c-282.784 0-512-229.216-512-512s229.216-512 512-512 512 229.216 512 512-229.216 512-512 512zM960 448c0-66.32-14.593-129.263-40.561-185.935l-283.216 151.552c3.024 10.976 4.784 22.464 4.784 34.384 0 71.248-57.744 129.008-129.008 129.008-14.624 0-28.624-2.544-41.712-7.024l-169.616 272.912c62.992 33.84 134.944 53.103 211.328 53.103 247.024 0 448-200.976 448-448zM511.999 512.994c35.84 0 65.008-29.151 65.008-65.008s-29.168-64.992-65.008-64.992-64.992 29.168-64.992 65.008 29.152 64.992 64.992 64.992zM246.575 808.627l170.177-273.84c-0.752-0.832-1.536-1.648-2.288-2.513l-283.168 151.52c30.208 48.576 69.392 90.977 115.279 124.833zM64 448.003c0 63.68 13.439 124.256 37.504 179.168l284.368-152.16c-1.856-8.72-2.881-17.728-2.881-27.008 0-71.248 57.744-129.008 129.008-129.008 12.4 0 24.352 1.84 35.696 5.104l170.192-273.792c-61.68-32.048-131.664-50.304-205.888-50.304-247.024 0-448 200.976-448 448zM772.447 83.843l-169.504 272.688c0.496 0.496 0.96 1.024 1.456 1.536l284.288-152.144c-30.752-47.632-70.24-89.088-116.24-122.080z" />
<glyph unicode="&#xe023;" glyph-name="cursor-move" d="M1016.4 463.36l-8.479 8.079c-0.16 0.16-0.336 0.225-0.528 0.368l-129.744 118.432c-9.344 8.944-24.448 8.944-33.824 0l-5.488-8.064c-9.344-8.944-6.304-23.408 3.040-32.336l76.464-69.344h-371.344v373.344l69.344-76.464c8.944-9.344 23.408-12.384 32.336-3.023l8.064 5.472c8.944 9.376 8.944 24.481 0 33.841l-113.168 123.968c-2.752 5.552-7.008 10.144-12.319 13.296l-1.424 1.488c-4.432 4.672-10.336 7.008-16.224 6.976-5.904 0.032-11.776-2.304-16.288-6.976l-8.096-8.464c-0.16-0.16-0.176-0.368-0.336-0.544l-115.504-127.744c-8.928-9.328-8.928-24.448 0-33.824l8.064-5.472c8.928-9.344 23.424-6.319 32.368 3.024l69.152 77.105v-375.984h-376.304l76.464 69.344c9.344 8.944 12.384 23.408 3.040 32.336l-5.472 8.064c-9.36 8.944-24.496 8.944-33.84 0l-123.984-113.184c-5.536-2.736-10.128-7.009-13.28-12.289l-1.488-1.424c-4.688-4.448-7.009-10.353-6.977-16.24-0.016-5.904 2.288-11.776 6.977-16.288l8.464-8.096c0.16-0.16 0.368-0.176 0.528-0.336l127.744-115.504c9.344-8.928 24.464-8.928 33.84 0l5.472 8.064c9.344 8.944 6.304 23.44-3.040 32.368l-77.12 69.152h379.008v-376.96l-69.152 77.104c-8.944 9.344-23.44 12.368-32.368 3.024l-8.064-5.472c-8.928-9.376-8.928-24.496 0-33.824l115.504-127.744c0.16-0.176 0.192-0.368 0.336-0.528l8.096-8.48c4.512-4.672 10.384-7.008 16.288-6.976 5.872-0.032 11.776 2.304 16.225 6.976l8.096 8.48c0.16 0.16 0.225 0.336 0.368 0.528l118.432 129.744c8.944 9.344 8.944 24.464 0 33.824l-8.064 5.488c-8.944 9.344-23.408 6.304-32.336-3.040l-69.344-76.464v374.336h373.968l-77.105-69.152c-9.344-8.944-12.368-23.44-3.024-32.368l5.472-8.064c9.376-8.928 24.496-8.928 33.824 0l127.744 115.504c0.176 0.176 0.368 0.191 0.528 0.335l8.48 8.096c4.672 4.496 7.008 10.368 6.976 16.288 0.032 5.856-2.304 11.776-6.976 16.225z" />
<glyph unicode="&#xe024;" glyph-name="crop" d="M992 160l-128-0.002v593.904l119.456 119.296c12.481 12.496 12.481 32.769 0 45.265-12.496 12.496-32.769 12.496-45.265 0l-118.608-118.464h-595.584v128c0 17.68-14.32 32-32 32s-32-14.32-32-32v-128h-128c-17.68 0-32-14.32-32-32 0-17.664 14.32-32 32-32h128v-608c0-2.944 0.944-5.601 1.681-8.288 0.32-1.216 0.256-2.464 0.72-3.632 3.216-8.064 9.6-14.433 17.664-17.681 1.376-0.56 2.88-0.495 4.288-0.847 2.528-0.64 4.929-1.552 7.648-1.552h608v-128c0-17.68 14.32-32 32-32s32 14.32 32 32v128h128c17.68 0 32 14.32 32 32s-14.32 32-32 32zM755.488 735.998l-531.488-530.784v530.784h531.488zM269.28 159.998l530.72 529.984v-529.984z" />
<glyph unicode="&#xe025;" glyph-name="credit-card" d="M928.144 784h-832.288c-53.024 0-96-42.976-96-96v-480c0-53.024 42.976-96 96-96h832.288c53.024 0 96 42.976 96 96v480c0 53.024-42.976 96-96 96zM95.856 720h832.288c17.664 0 32-14.336 32-32v-64h-896.288v64c0 17.664 14.352 32 32 32zM928.144 176h-832.288c-17.664 0-32 14.336-32 32v288h896.288v-288c0-17.664-14.352-32-32-32z" />
<glyph unicode="&#xe026;" glyph-name="chemistry" d="M810.416-10.72l-170.401 201.664v353.504h21.312c17.68 0 32 14.32 32 32s-14.32 32-32 32h-53.312c-17.68 0-32-14.32-32-32v-397.824c0-7.936 2.944-15.567 8.256-21.439l130.368-157.344h-405.28l130.368 157.344c5.312 5.872 8.256 13.504 8.256 21.439v397.824c0 17.68-14.32 32-32 32h-53.312c-17.68 0-32-14.32-32-32s14.32-32 32-32h21.312v-353.504l-170.4-201.664c-8.464-9.376-10.624-22.88-5.504-34.432 5.152-11.568 16.593-19.009 29.249-19.009h549.344c12.656 0 24.097 7.44 29.249 19.009 5.12 11.552 2.977 25.056-5.504 34.432zM479.999 640.32c35.264 0 63.84 28.592 63.84 63.84 0 35.216-28.576 63.808-63.84 63.808-35.28 0-63.84-28.592-63.84-63.808 0-35.248 28.56-63.84 63.84-63.84zM688.479 735.312c62.368 0 112.928 50.336 112.928 112.416s-50.544 112.416-112.928 112.416c-62.352 0-112.928-50.336-112.928-112.416s50.576-112.416 112.928-112.416zM687.983 896.337c26.656 0 48.336-21.584 48.336-48.128 0-26.528-21.68-48.128-48.336-48.128s-48.336 21.6-48.336 48.128c0.016 26.544 21.68 48.128 48.336 48.128z" />
<glyph unicode="&#xe027;" glyph-name="bell" d="M905.616 248.112c-37.344 45.424-88.481 109.742-88.481 175.358v208.96c0 180.016-134.64 326.479-306.688 326.479-172.080 0-305.664-146.464-305.664-326.479v-208.96c0-64.512-55.488-125.487-90.672-172.799-31.648-42.512-56.624-76.096-39.76-109.664 14.832-29.536 51.968-33.328 82.655-33.328h183.36c0.048-94.208 76.448-170.576 170.672-170.576 94.24 0 170.641 76.368 170.688 170.576h187.664c19.519 0 65.151 0 80.863 33.2 15.856 33.616-9.52 64.513-44.64 107.232zM511.007 4.143c-57.216 0-103.632 46.352-103.712 103.535h207.424c-0.080-57.184-46.464-103.535-103.712-103.535zM869.391 175.807h-712.385c-4.896 0-8.991 0.16-12.367 0.368 6.592 10.208 16.272 23.248 24.144 33.856 38.992 52.4 104.145 126.368 104.145 213.424v208.96c0 142.464 103.040 258.352 237.521 258.352s238.561-115.888 238.561-258.352v-208.96c0-90.016 60.080-165.248 103.968-218.608 7.392-8.992 16.239-19.76 23.119-28.96-2.032-0.048-4.272-0.080-6.704-0.080z" />
<glyph unicode="&#xe028;" glyph-name="badge" d="M1021.060 120.032l-187.262 346.304c19.104 43.36 29.792 91.28 29.792 141.696 0 194.304-157.52 351.808-351.808 351.808-194.336 0-351.84-157.52-351.84-351.808 0-51.632 11.216-100.624 31.184-144.784l-188.096-343.056c-6.064-11.024-5.057-24.624 2.527-34.689 7.6-10.032 20.432-14.752 32.688-11.872l160.624 36.848 54.976-153.12c4.288-11.904 15.152-20.16 27.744-21.088 0.816-0.064 1.601-0.097 2.368-0.097 11.712 0 22.592 6.432 28.191 16.88l163.696 304.976c11.808-1.2 23.792-1.809 35.92-1.809 11.12 0 22.096 0.576 32.943 1.601l167.248-305.008c5.664-10.32 16.432-16.624 28.063-16.624 0.816 0 1.664 0.032 2.496 0.097 12.56 1.008 23.376 9.248 27.632 21.088l54.976 153.12 160.624-36.848c12.32-2.976 25.024 1.809 32.624 11.809 7.632 9.984 8.656 23.52 2.688 34.576zM289.778 46.656l-40.258 112.161c-5.504 15.248-21.472 24.128-37.279 20.368l-118.8-27.248 135.408 246.976c44.592-60.24 107.952-105.681 181.44-127.793zM224.225 608.033c0 158.544 129.009 287.536 287.568 287.536 158.544 0 287.536-128.992 287.536-287.536s-128.992-287.568-287.536-287.568c-158.576 0-287.568 129.024-287.568 287.568zM811.745 179.186c-15.872 3.744-31.776-5.119-37.28-20.367l-40.528-112.976-123.152 224.56c75.44 22.096 140.337 68.735 185.505 130.735l134.848-249.328z" />
<glyph unicode="&#xe029;" glyph-name="anchor" d="M1021.020 228.592l-82.286 151.298c-0.128 0.208-0.096 0.4-0.224 0.593l-5.872 10.144c-3.28 5.616-8.433 9.232-14.192 10.593-5.696 1.408-11.984 0.544-17.408-2.976l-9.84-6.336c-0.192-0.112-0.305-0.288-0.497-0.416l-145.6-98.32c-10.88-7.008-14.416-21.68-7.936-32.912l6.544-7.2c6.48-11.184 21.265-11.648 32.161-4.64l87.040 59.184c-20.608-166-154.736-293.392-318.96-308.176v641.6h128.048c17.664 0 32 14.336 32 32s-14.336 32-32 32h-129.44c-0.24 0.832-0.448 1.664-0.769 2.464 57.104 13.28 99.695 64.368 99.695 125.536 0 71.248-57.744 129.008-129.008 129.008-71.248 0-128.992-57.744-128.992-129.008 0-60.816 42.112-111.664 98.736-125.28-0.336-0.88-0.576-1.808-0.849-2.72h-129.376c-17.664 0-32-14.336-32-32s14.336-32 32-32h127.984v-641.584c-164.176 14.784-298.16 142.128-318.816 308.112l86.944-59.12c10.88-7.008 25.664-6.544 32.144 4.64l6.56 7.2c6.48 11.216 2.944 25.903-7.951 32.911l-145.6 98.32c-0.192 0.144-0.305 0.319-0.48 0.415l-9.856 6.336c-5.408 3.52-11.696 4.367-17.408 2.976-5.744-1.36-10.912-4.992-14.192-10.592l-5.872-10.16c-0.112-0.192-0.097-0.385-0.209-0.593l-82.272-151.296c-6.496-11.168-2.944-25.872 7.952-32.896l9.12-3.424c10.88-6.992 24.256-0.641 30.752 10.543l47.904 88.976c29.376-204.72 205.104-357.823 413.279-357.823 208.064 0 383.921 153.088 413.361 357.712l47.84-88.864c6.496-11.184 19.888-17.535 30.768-10.543l9.12 3.424c10.896 7.024 14.448 21.728 7.952 32.896zM447.506 833.025c0 35.84 29.153 65.010 64.993 65.010s65.008-29.152 65.008-65.009-29.152-65.009-65.009-65.009c-35.824 0.016-64.992 29.168-64.992 65.008z" />
<glyph unicode="&#xe02a;" glyph-name="wallet" d="M1023.65 669.52c0.464 23.664-5.904 78.848-77.84 98.063l-722.416 144.624c-52.944 0-96-43.056-96-96v-128.704l-32 0.080c-52.752-0.224-95.632-43.151-95.632-95.968v-511.808c0-52.944 43.056-96 96-96h832.464c52.944 0 96 43.056 96 96zM191.393 816.207c0 16.72 12.88 30.463 29.216 31.871l706-142.88c0.256-0.128-5.248-17.936-30.88-17.6h-704.336zM960.24 79.79c0-17.664-14.336-32-32-32h-832.48c-17.664 0-32 14.336-32 32v511.824c0 17.664 14.336 32 32 32h800.064c31.408 0 64.4 10.704 64.4 31.888v-575.712h0.016zM191.824 399.502c-35.344 0-64-28.656-64-64s28.656-64 64-64 64 28.656 64 64-28.656 64-64 64z" />
<glyph unicode="&#xe02b;" glyph-name="vector" d="M992 288h-32.273v1.616c0 161.92-86.528 303.808-215.664 382.384h160.816c11.088-19.040 31.504-32 55.12-32 35.344 0 64 28.656 64 64s-28.656 64-64 64c-23.632 0-44.032-12.96-55.12-32h-296.88v32c0 17.664-14.336 32-32 32h-128c-17.664 0-32-14.336-32-32v-32h-296.88c-11.088 19.040-31.488 32-55.12 32-35.344 0-64-28.656-64-64s28.656-64 64-64c23.632 0 44.032 12.96 55.12 32h160.8c-129.136-78.592-215.647-220.464-215.647-382.384v-1.616h-32.273c-17.664 0-32-14.336-32-32v-128c0-17.664 14.336-32 32-32h128c17.664 0 32 14.336 32 32v128c0 17.664-14.336 32-32 32h-31.727v1.616c0 178.448 122.464 328.672 287.728 371.392v-21.008c0-17.664 14.336-32 32-32h128c17.664 0 32 14.336 32 32v21.008c165.264-42.736 287.728-192.96 287.728-371.392v-1.616h-31.727c-17.664 0-32-14.336-32-32v-128c0-17.664 14.336-32 32-32h128c17.664 0 32 14.336 32 32v128c0 17.664-14.336 32-32 32zM128 160h-64v64h64v-64zM544 672h-64v64h64v-64zM960 160h-64v64h64v-64z" />
<glyph unicode="&#xe02c;" glyph-name="speech" d="M960 896.4h-895.999c-35.344 0-64-28.656-64-64v-577.504c0-35.344 28.656-64 64-64h127.536v-159.312c0-12.912 7.744-24.528 19.632-29.504 4-1.68 8.224-2.496 12.367-2.496 8.256 0 16.336 3.184 22.432 9.184l185.024 182.128h529.008c35.344 0 64 28.656 64 64v577.504c0 35.344-28.656 64-64 64zM960.001 254.912h-555.216l-149.248-146.912v146.912h-191.536v577.488h896v-577.488zM224.001 510.992h576c17.664 0 32 14.336 32 32s-14.336 32-32 32h-576c-17.664 0-32-14.336-32-32s14.336-32 32-32zM224.001 638.992h576c17.664 0 32 14.336 32 32s-14.336 32-32 32h-576c-17.664 0-32-14.336-32-32s14.336-32 32-32zM224.001 382.992h384c17.664 0 32 14.336 32 32s-14.336 32-32 32h-384c-17.664 0-32-14.336-32-32s14.336-32 32-32z" />
<glyph unicode="&#xe02d;" glyph-name="puzzle" d="M512-64.16c-20.288 0-39.378 7.87-53.746 22.19l-436.512 436.496c-29.536 29.68-29.536 77.952-0.064 107.568l159.904 159.872c9.872 9.872 25.024 12.224 37.44 5.743 12.368-6.464 19.12-20.224 16.689-33.968-1.632-9.152-2.368-16.496-2.368-23.12 0-70 56.976-128.144 127.008-128.144 70.096 0 121.279 58.144 121.279 128.144 0 70.096-51.184 127.088-121.279 127.088-6.56 0-13.871-0.752-23.023-2.368-13.872-2.56-27.504 4.32-33.968 16.688-6.464 12.4-4.128 27.568 5.744 37.44l149.088 149.12c28.88 28.752 78.815 28.688 107.567 0.063l109.152-109.216c22.784 70.816 89.28 122.225 167.536 122.225 97.024 0 175.969-78.976 175.969-176.031 0-78.256-51.376-144.752-122.224-167.504l106.032-105.968c29.6-29.68 29.6-77.952 0.031-107.601l-436.448-436.464c-14.432-14.384-33.519-22.256-53.808-22.256zM174.895 564.782l-107.905-107.872c-4.656-4.688-4.656-12.433 0.063-17.185l436.368-436.384c6.128-6.064 10.944-6.129 17.185 0.063l436.352 436.384c4.688 4.72 4.688 12.399-0.031 17.151l-153.904 153.808c-9.632 9.632-12.128 24.32-6.192 36.561s18.848 19.504 32.527 17.84l4.88-0.624c2.688-0.368 5.377-0.816 8.193-0.816 61.744 0 111.968 50.192 111.968 111.904 0 61.776-50.224 112.032-111.968 112.032-61.712 0-111.936-50.256-111.936-112.032 0-2.56 0.4-5.056 0.752-7.567l0.688-5.712c1.44-13.504-5.775-26.432-18.031-32.288-12.16-5.808-26.816-3.312-36.4 6.257l-156.944 157.024c-6.128 6.064-10.944 6.129-17.185-0.063l-97.12-97.12c83.28-20.624 139.376-95.968 139.376-185.536 0-105.312-79.92-192.128-185.296-192.128-89.536 0.016-164.848 63.088-185.439 146.304z" />
<glyph unicode="&#xe02e;" glyph-name="printer" d="M952.736 705.072h-120.719v254.448h-640.032v-254.448h-120.72c-39.313 0-71.313-32-71.313-71.344v-433.888c0-39.344 32-71.344 71.311-71.344h120.72v-192.016h640.032v192.016h120.72c39.313 0 71.313 32 71.313 71.344v433.888c0 39.344-32 71.344-71.313 71.344zM255.985 896.513h512.032v-191.44h-512.032v191.44zM768.018 0.48h-512.032v352.4h512.032v-352.4zM960.050 199.841c0-4.080-3.28-7.344-7.313-7.344h-120.72v224.384h-640.032v-224.368h-120.72c-4.032 0-7.313 3.264-7.313 7.344v433.872c0 4.064 3.28 7.345 7.313 7.345h881.472c4.032 0 7.313-3.28 7.313-7.345zM832.002 576.561h-32c-17.664 0-32-14.336-32-32s14.336-32 32-32h32c17.664 0 32 14.336 32 32s-14.336 32-32 32z" />
<glyph unicode="&#xe02f;" glyph-name="present" d="M1024 639.504c0 35.344-28.654 64-63.998 64h-109.248c28.273 27.888 46.368 64.447 46.368 109.472 0 55.44-31.84 115.664-121.216 115.664-117.6 0-215.84-125.216-262-195.408-46.192 70.176-147.44 195.392-265.024 195.392-89.376 0-121.216-60.224-121.216-115.664 0-45.008 18.592-81.584 47.439-109.472h-111.104c-35.344 0-64-28.656-64-64v-191.568h64.56v-416.56c0-35.344 28.656-64 64-64h767.68c35.344 0 64 28.656 64 64v416.576h63.76v191.568zM775.906 864.624c39.568 0 57.216-16.625 57.216-51.665 0-71.088-79.344-109.439-153.968-109.439h-108.336c45.472 67.536 125.504 161.104 205.088 161.104zM248.881 864.623c79.6 0 162.655-93.568 208.127-161.088h-108.368c-74.624 0-156.976 39.344-156.976 110.432 0 35.024 17.648 50.656 57.217 50.656zM960.001 511.936h-416v127.568h416v-127.568zM64.001 639.504h416v-127.568h-416zM128.561 447.936h351.44v-416.56h-351.44zM896.257 31.376h-352.256v416.56h352.256v-416.56z" />
<glyph unicode="&#xe030;" glyph-name="playlist" d="M33.76 896.24h448c17.664 0 32 14.336 32 32s-14.336 32-32 32h-448c-17.664 0-32-14.336-32-32s14.32-32 32-32zM33.76 704.24h448c17.664 0 32 14.336 32 32s-14.336 32-32 32h-448c-17.664 0-32-14.336-32-32s14.32-32 32-32zM513.76 544.24c0 17.664-14.336 32-32 32h-448c-17.664 0-32-14.336-32-32s14.336-32 32-32h448c17.664 0 32 14.336 32 32zM1012.88 635.456l-312.912 312.898c-9.904 9.92-24.656 11.84-36.592 6.016-12.544-4.336-21.616-16.112-21.616-30.128v-708.4c-33.92 25.136-78.432 40.527-127.376 40.527-106.064 0-192.097-71.776-192.097-160.288 0-88.528 86.032-160.336 192.097-160.336 106.128 0 192.096 71.808 192.096 160.336 0 4.016-0.368 7.936-0.72 11.871v744.096l261.84-261.856c12.496-12.496 32.769-12.496 45.265 0s12.496 32.769 0.016 45.265zM641.76 92.978c-2.304-44.496-54.191-92.814-128.127-92.814-75.648 0-128.353 50.56-128.353 95.871 0 45.344 52.704 95.84 128.353 95.84 73.936 0 125.823-48.256 128.127-92.784v-6.112z" />
<glyph unicode="&#xe031;" glyph-name="pin" d="M1014.85 580.336l-368.158 370.015c-7.936 7.968-19.376 11.216-30.32 8.496-10.912-2.656-19.601-10.849-22.944-21.568-22.16-71.312-24.72-135.84-7.792-194.688-1.552-1.072-3.040-2.24-4.416-3.616l-171.104-171.072c-55.2 25.6-114.544 39.456-173.696 39.456-37.6 0-74.464-5.568-109.567-16.465-10.689-3.344-18.881-12-21.569-22.848-2.688-10.88 0.464-22.336 8.368-30.288l218.976-220.384-306.16-311.040-26.624-70.128 64.368 24.88 313.36 311.040 221.824-223.264c6.064-6.128 14.288-9.439 22.688-9.439 2.528 0 5.088 0.32 7.632 0.912 10.912 2.688 19.601 10.881 22.944 21.601 28.976 93.232 20.48 193.345-20.337 283.121l174.704 174.736c0.624 0.624 1.056 1.328 1.632 2 26.368-7.536 53.696-11.568 82.048-11.568 35.216 0 72.56 5.056 110.976 17.008 10.688 3.313 18.881 12 21.569 22.848 2.656 10.848-0.496 22.304-8.4 30.256zM603.153 135.854l-402.783 405.407c103.376 12.064 214.848-29.6 295.567-110.319 80.32-80.304 119.504-191.296 107.216-295.088zM600.227 403.454c-16.832 25.728-36.465 50.176-59.024 72.752-22.464 22.464-47.008 42.256-72.96 59.328l144.128 144.096c14.704-25.568 33.664-50 57.008-73.328 23.856-23.84 49.089-43.136 75.601-58.063zM714.626 651.55c-61.536 61.536-85.247 130.129-72.688 212.881l286.912-288.4c-82.656-11.856-151.601 12.895-214.225 75.519z" />
<glyph unicode="&#xe032;" glyph-name="picture" d="M960 880.096h-896c-35.184 0-64-28.816-64-64v-736.192c0-35.184 28.816-64 64-64h896c35.184 0 64 28.816 64 64v736.192c0 35.184-28.816 64-64 64zM960 79.903l-895.999 0.001v188.56l256.848 248.912 264.784-264.496c10.912-13.248 30.336-11.568 44.128-1.12l116.88 105.808 210.8-216.384c0.8-0.8 1.695-1.392 2.56-2.080v-59.2zM960.001 230.208l-188.031 192.416c-11.408 11.248-29.28 12.4-41.937 2.752l-120.56-105.024-264.944 262.080c-5.664 6.848-13.84 11.023-22.688 11.6-8.816 0.32-17.505-2.56-23.969-8.624l-233.872-227.6v458.288h896v-585.888zM736.002 559.872c35.28 0 63.84 28.608 63.84 63.841 0 35.216-28.56 63.824-63.84 63.824s-63.84-28.608-63.84-63.824c0-35.232 28.56-63.841 63.84-63.841z" />
<glyph unicode="&#xe033;" glyph-name="map" d="M993.184 824.992l-320.961 133.069-319.44-126.432-321.968 126.368c-2.752 0.816-5.439 1.12-7.968 1.12-13.136 0.064-22.848-9.743-22.848-24.495v-830c0-17.568 13.872-35.872 30.816-40.56l322.336-127.184 319.008 129.504 321.024-126.128c2.752-0.752 5.44-1.12 7.969-1.12 13.12 0 22.848 9.744 22.848 24.496v820.736c0 17.568-13.872 35.889-30.816 40.625zM383.999 778.861l256 100.304v-761.504l-256-101.184v762.384zM63.999 873.309l256-94.577v-761.76l-256 104.272v752.064zM959.999 21.995l-256 96.384v759.824l256-110.384v-745.824z" />
<glyph unicode="&#xe034;" glyph-name="layers" d="M21.84 658.192l475.090-258.72c4.784-2.592 10.032-3.904 15.313-3.904 5.216 0 10.432 1.28 15.184 3.84l480.096 258.72c10.464 5.632 16.976 16.624 16.815 28.528-0.16 11.936-6.912 22.752-17.504 28.16l-475.12 241.28c-9.056 4.592-19.744 4.624-28.88 0.064l-480.048-241.28c-10.624-5.344-17.44-16.16-17.633-28.064s6.256-22.944 16.688-28.624zM517.153 891.713l406.159-206.271-410.976-221.472-406.176 221.184zM1001.34 479.682l-94.974 48.225-68.56-36.976 80-40.624-410.96-221.456-406.192 221.184 85.311 42.88-68.368 37.248-100.32-50.4c-10.624-5.344-17.44-16.16-17.633-28.065s6.256-22.944 16.688-28.624l475.088-258.72c4.784-2.592 10.032-3.903 15.313-3.903 5.216 0 10.432 1.28 15.184 3.84l480.096 258.72c10.464 5.632 16.976 16.624 16.815 28.528-0.144 11.935-6.896 22.752-17.487 28.144zM1001.35 255.683l-89.966 44.224-68.56-36.976 75.008-36.624-410.976-221.456-406.192 221.184 79.311 35.872-68.368 37.248-94.32-43.408c-10.624-5.344-17.44-16.16-17.633-28.064s6.256-22.944 16.688-28.624l475.088-258.72c4.784-2.592 10.032-3.903 15.313-3.903 5.216 0 10.432 1.28 15.184 3.84l480.096 258.72c10.464 5.632 16.976 16.624 16.815 28.528-0.144 11.952-6.896 22.769-17.487 28.16z" />
<glyph unicode="&#xe035;" glyph-name="handbag" d="M1022.74 17.36l-83.407 503.777c-7.44 65.312-66.977 118.432-132.721 118.432h-70.656v85.28c0 130.16-92.848 236.032-222.976 236.032-130.096 0-224.943-105.872-224.943-236.032v-85.28h-76.672c-65.744 0-125.28-53.12-132.528-117.056l-77.28-504.16c-2.976-26.56 2.225-47.504 15.408-62.288 12.432-13.904 30.527-20.977 53.743-20.977h873.568c32.912 0 51.776 13.216 61.841 24.32 9.216 10.208 19.648 28.144 16.623 57.951zM352.049 724.865c0 94.848 66.127 172.031 160.943 172.031s158.977-77.184 158.977-172.031v-85.28h-319.92zM947.168-0.446l-872.498-0.449c-5.504 0-11.008 2.944-9.712 10.688l77.248 504.096c3.84 33.44 35.504 61.681 69.152 61.681h76.689v-72.928c-19.072-11.072-32.048-31.488-32.048-55.137 0-35.344 28.656-64 64-64s64 28.656 64 64c0 23.616-12.928 44-31.952 55.088v72.992h319.904v-72.992c-19.008-11.088-31.952-31.488-31.952-55.088 0-35.344 28.656-64 64-64s64 28.656 64 64c0 23.648-12.976 44.065-32.048 55.152v72.928h70.656c33.664 0 65.313-28.256 69.408-63.439l83.344-503.28c0.4-4.096-2.815-9.312-12.191-9.312z" />
<glyph unicode="&#xe036;" glyph-name="globe-alt" d="M929.504 545.584c0 168.784-88.977 321.873-237.97 409.569-15.248 9.008-34.88 3.872-43.808-11.376-8.944-15.216-3.872-34.848 11.376-43.808 129.248-76.032 206.4-208.528 206.4-354.368 0-242.368-175.936-418.288-418.319-418.288-54.192 0-106.784 10.16-156.32 30.16-16.368 6.656-35.057-1.279-41.665-17.663-6.624-16.4 1.28-35.057 17.664-41.665 57.216-23.12 117.872-34.848 180.32-34.848 0.192 0 0.385 0.016 0.577 0.016v-63.008h-92.928c-18.464 0-33.44-14.304-33.44-31.952s14.976-31.937 33.44-31.937h252.848c18.464 0 33.439 14.304 33.439 31.936 0 17.664-14.976 31.952-33.439 31.952h-96.384v66.8c245.808 28.56 418.208 220.911 418.208 478.479zM799.374 542.705c0 194.656-157.744 353.408-352.4 353.408-194.688 0-352.465-158.752-352.465-353.408s157.776-351.44 352.465-351.44c194.656 0 352.4 156.784 352.4 351.44zM158.494 542.705c0 159.024 129.408 289.408 288.464 289.408 159.024 0 288.4-130.368 288.4-289.408s-129.376-287.44-288.4-287.44c-159.056 0-288.464 128.4-288.464 287.44z" />
<glyph unicode="&#xe037;" glyph-name="globe" d="M1025.020 448c0 272.016-213.663 495.104-482.319 511.023-5.536 0.608-11.088 1.009-16.72 1.009-1.664 0-3.328-0.176-4.992-0.224-2.992 0.048-5.968 0.224-8.992 0.224-282.88 0-513.023-229.696-513.023-512.032s230.144-512.032 513.023-512.032c3.024 0 6 0.176 9.008 0.24 1.664-0.064 3.328-0.24 4.992-0.24 5.632 0 11.184 0.4 16.72 1.009 268.64 15.92 482.304 238.976 482.303 511.023zM929.569 283.168c-17.632 5.12-61.921 16.239-140.064 25.392 6.464 44.192 10 90.896 10 139.44 0 38.256-2.208 75.344-6.288 111.008 99.008 11.824 142.384 26.721 145.296 27.745l-11.92 33.584c22.24-53.088 34.561-111.296 34.561-172.336 0-58.192-11.28-113.761-31.584-164.833zM285.488 447.999c0 35.808 2.369 70.769 6.705 104.401 51.888-4.080 113.936-7.088 186.863-7.792v-222.064c-70.992-0.688-131.664-3.568-182.688-7.473-7.040 42.192-10.88 86.88-10.88 132.928zM542.945 891.777c78.464-22.736 145.648-131.695 175.744-276.111-48.368-3.856-106.624-6.673-175.744-7.329v283.44zM479.059 890.994v-282.624c-68.368 0.688-126.88 3.473-176.063 7.232 30.704 142.608 98.432 250.752 176.063 275.392zM479.059 258.771l0.001-253.743c-72.4 22.976-136.192 118.575-169.36 247.023 47.76 3.504 104.096 6.063 169.359 6.72zM542.947 4.228l-0.001 254.561c65.952-0.624 122.064-3.28 169.217-6.929-32.608-130.128-96-226.416-169.216-247.632zM542.946 322.548l0.001 222.032c73.312 0.688 134.991 3.776 186.191 8 4.208-33.696 6.496-68.704 6.496-104.592 0-46.128-3.712-90.864-10.528-133.12-50.416 4.080-110.8 7.008-182.16 7.68zM914.804 646.068c-9.664-3.008-50.063-14.481-131.023-24.032-18.048 95.952-50.672 177.968-93.12 237.168 97.536-42.384 177.136-118.304 224.144-213.136zM358.82 869.411c-52.208-59.952-94.832-146.161-118.096-248.113-72.481 7.856-115.921 17.089-133.312 21.281 50.72 104.64 141.040 186.752 251.408 226.832zM83.637 582.818c12.32-3.344 58.913-14.941 145.553-24.525-4.96-35.44-7.68-72.305-7.68-110.305 0-48.272 4.368-94.721 12.24-138.688-74.4-8.032-120.16-17.648-140.688-22.608-19.44 50.096-30.208 104.447-30.208 161.312 0 46.96 7.312 92.256 20.783 134.815zM121.094 227.652c23.264 4.944 64.912 12.464 126.592 18.928 24.288-89.712 63.792-165.616 111.136-219.968-101.12 36.72-185.296 108.752-237.728 201.040v0zM690.662 36.82c38.224 53.264 68.48 125.024 87.296 208.801 63.408-7.28 103.216-15.792 123.296-20.864-48.016-83.072-121.855-149.393-210.592-187.937z" />
<glyph unicode="&#xe038;" glyph-name="frame" d="M224 848h-192c-17.664 0-32-14.336-32-32v-192c0-17.664 14.336-32 32-32s32 14.336 32 32v160h160c17.664 0 32 14.336 32 32s-14.336 32-32 32zM992 304c-17.664 0-32-14.336-32-32v-160h-160c-17.664 0-32-14.336-32-32s14.336-32 32-32h192c17.664 0 32 14.336 32 32v192c0 17.664-14.336 32-32 32zM224 112h-160v160c0 17.664-14.336 32-32 32s-32-14.336-32-32v-192c0-17.664 14.336-32 32-32h192c17.664 0 32 14.336 32 32s-14.336 32-32 32zM992 848h-192c-17.664 0-32-14.336-32-32s14.336-32 32-32h160v-160c0-17.664 14.336-32 32-32s32 14.336 32 32v192c0 17.664-14.336 32-32 32z" />
<glyph unicode="&#xe039;" glyph-name="folder-alt" d="M960.16 752h-480l-96 96h-320c-35.344 0-64-28.656-64-64v-160h-0.304v-64h0.304v-448c0-35.344 28.656-64 64-64h896c35.344 0 64 28.656 64 64v576c0 35.344-28.656 64-64 64zM64.144 784h290.751l78.624-77.248 20.112-18.752h506.528v-64h-896v160h-0.015zM64.144 112v448h896v-448h-896z" />
<glyph unicode="&#xe03a;" glyph-name="film" d="M800 687.712h64c17.664 0 32 14.336 32 32v32c0 17.664-14.336 32-32 32h-64c-17.664 0-32-14.336-32-32v-32c0-17.664 14.336-32 32-32zM800 495.712h64c17.664 0 32 14.336 32 32v32c0 17.664-14.336 32-32 32h-64c-17.664 0-32-14.336-32-32v-32c0-17.664 14.336-32 32-32zM800 303.712h64c17.664 0 32 14.336 32 32v32c0 17.664-14.336 32-32 32h-64c-17.664 0-32-14.336-32-32v-32c0-17.664 14.336-32 32-32zM800 111.712h64c17.664 0 32 14.336 32 32v32c0 17.664-14.336 32-32 32h-64c-17.664 0-32-14.336-32-32v-32c0-17.664 14.336-32 32-32zM160 687.712h64c17.664 0 32 14.336 32 32v32c0 17.664-14.336 32-32 32h-64c-17.664 0-32-14.336-32-32v-32c0-17.664 14.336-32 32-32zM160 495.712h64c17.664 0 32 14.336 32 32v32c0 17.664-14.336 32-32 32h-64c-17.664 0-32-14.336-32-32v-32c0-17.664 14.336-32 32-32zM160 303.712h64c17.664 0 32 14.336 32 32v32c0 17.664-14.336 32-32 32h-64c-17.664 0-32-14.336-32-32v-32c0-17.664 14.336-32 32-32zM160 111.712h64c17.664 0 32 14.336 32 32v32c0 17.664-14.336 32-32 32h-64c-17.664 0-32-14.336-32-32v-32c0-17.664 14.336-32 32-32zM960 944.096h-896c-35.184 0-64-28.816-64-64v-864.192c0-35.184 28.816-64 64-64h896c35.184 0 64 28.816 64 64v864.192c0 35.184-28.816 64-64 64zM960 15.903h-896v864.192h896v-864.192z" />
<glyph unicode="&#xe03b;" glyph-name="feed" d="M101.872 629.744c-18.128 0-32.769-14.656-32.769-32.769 0-18.096 14.64-32.768 32.768-32.768 303.008 0 525.344-224.368 525.344-527.36 0-18.096 14.656-32.752 32.769-32.752s32.769 14.656 32.769 32.752c0 340.368-250.528 592.896-590.88 592.896zM102.159 957.376c-18.112 0-32.77-14.655-32.77-32.768s14.656-32.769 32.769-32.769c470.176 0 852.672-382.496 852.672-852.656 0-18.096 14.656-32.752 32.769-32.752s32.769 14.656 32.769 32.752c-0.016 506.288-411.92 918.192-918.208 918.192zM184.015 300.401c-99.472 0-180.369-81.119-180.369-180.879 0-99.712 80.912-180.912 180.368-180.912s180.4 81.184 180.4 180.911c0 99.76-80.928 180.88-180.399 180.88zM184.014 1.971c-64.608 0-117.168 52.752-117.168 117.568s52.56 117.536 117.168 117.536c64.624 0 117.216-52.72 117.216-117.536s-52.592-117.568-117.216-117.568z" />
<glyph unicode="&#xe03c;" glyph-name="earphones-alt" d="M1023.84 387.456c0.096 21.056-3.217 100.496-5.745 123.216-29.12 260.752-240.752 450-503.184 450-273.344 0-494.815-210.624-509.84-489.904-0.32-6.096-2.561-49.344-2.721-75.088l-0.080-14.32c-1.312-5.92-2.111-12.032-2.111-18.336v-214.656c0-46.88 38.128-85.008 85.008-85.008h86.288c46.88 0 85.023 38.128 85.023 85.008v214.64c0 46.88-38.16 85.008-85.024 85.008h-86.304c-5.888 0-11.632-0.608-17.184-1.744 0.48 10.384 0.912 18.576 1.024 21.057 13.168 244.784 207.136 429.344 445.92 429.344 229.28 0 414.128-165.344 439.568-393.12 1.072-9.504 2.448-33.664 3.552-57.92-6.192 1.44-12.576 2.385-19.2 2.385h-85.28c-46.88 0-85.008-38.128-85.008-85.008v-213.664c0-32.368 18.4-60.256 45.089-74.592l-205.44-80.656v5.216c0 17.664-14.336 32-32 32h-96c-17.664 0-32-14.336-32-32v-32c0-17.664 14.336-32 32-32h96c0.272 0 0.513 0.080 0.785 0.080l57.36 0.224 329.552 129.376c4.32 1.792 7.984 4.464 10.992 7.664 28.848 13.616 48.991 42.736 48.991 76.688v213.664c0 5.216-0.64 10.288-1.552 15.232 0.88 2.944 1.504 6 1.52 9.216zM85.151 384.016h86.289c11.6 0 21.023-9.408 21.023-21.008v-214.656c0-11.6-9.44-21.008-21.024-21.008h-86.288c-11.6 0-21.008 9.408-21.008 21.008v214.656c0.016 11.6 9.424 21.008 21.008 21.008zM832.528 363.008c0 11.6 9.409 21.008 21.009 21.008h85.28c11.6 0 21.023-9.408 21.023-21.008v-213.664c0-11.6-9.44-21.008-21.024-21.008h-85.28c-11.6 0-21.008 9.408-21.008 21.008v213.664z" />
<glyph unicode="&#xe03d;" glyph-name="earphones" d="M1023.84 355.44c0.096 21.056-3.216 100.497-5.744 123.217-29.12 260.752-240.752 450-503.184 450-273.344 0-494.815-210.624-509.84-489.904-0.32-6.096-2.561-49.344-2.721-75.088l-0.080-14.32c-1.312-5.92-2.111-12.032-2.111-18.336v-278.656c0-46.88 38.128-85.008 85.008-85.008h86.288c46.88 0 85.023 38.128 85.023 85.008v278.64c0 46.88-38.16 85.008-85.024 85.008h-86.32c-5.888 0-11.632-0.608-17.184-1.744 0.48 10.384 0.912 18.592 1.024 21.056 13.184 244.784 207.136 429.344 445.936 429.344 229.28 0 414.128-165.344 439.568-393.12 1.088-9.504 2.464-33.664 3.568-57.92-6.24 1.44-12.608 2.385-19.232 2.385h-85.28c-46.88 0-85.008-38.128-85.008-85.008v-277.664c0-46.895 38.128-85.008 85.008-85.008h85.28c46.88 0 85.023 38.128 85.023 85.008v277.664c0 5.216-0.64 10.288-1.567 15.216 0.928 2.944 1.536 6.017 1.568 9.232zM85.136 352.001h86.288c11.6 0 21.023-9.408 21.023-21.008v-278.656c0-11.616-9.44-21.008-21.024-21.008h-86.288c-11.6 0-21.008 9.408-21.008 21.008v278.656c0.032 11.6 9.44 21.008 21.009 21.008zM959.84 53.345c0-11.6-9.439-21.008-21.023-21.008h-85.28c-11.6 0-21.008 9.408-21.008 21.008v277.648c0 11.6 9.408 21.008 21.008 21.008h85.28c11.6 0 21.023-9.408 21.023-21.008v-277.648z" />
<glyph unicode="&#xe03e;" glyph-name="drop" d="M510.4-62.704c-193.312 0-350.592 155.12-350.592 345.776 0 222.688 311.632 644.848 324.912 662.72 6 8.064 15.408 12.849 25.473 12.913 11.184 0.096 19.567-4.593 25.663-12.561 13.408-17.536 328.336-432.225 328.336-663.057 0-190.672-158.72-345.792-353.792-345.792zM510.752 872.304c-74.4-105.664-286.943-422.064-286.943-589.217 0-155.376 128.56-281.776 286.592-281.776 159.776 0 289.776 126.4 289.776 281.776 0.016 173.36-214.145 485.024-289.425 589.217z" />
<glyph unicode="&#xe03f;" glyph-name="drawar" d="M1022.98 450.016l-117.505 407.089c-3.84 13.872-16.464 23.472-30.848 23.472h-735.344c-14.496 0-27.185-9.744-30.944-23.776l-107.392-386.352c-1.984-7.504-1.009-15.008 1.999-21.536-1.728-5.792-2.943-11.824-2.943-18.176v-351.312c0-35.344 28.656-64 64-64h896c35.344 0 64 28.656 64 64v351.312c0 1.712-0.368 3.328-0.496 5.008 0.832 4.592 0.816 9.439-0.527 14.272zM163.902 816.576l686.369 0.001 93.12-321.84h-298.336c-1.44-76.816-55.904-129.681-133.057-129.681s-130.624 52.88-132.064 129.68h-305.776zM959.999 79.425h-895.998v351.312h263.12c27.935-80.432 95.775-129.68 184.879-129.68s157.936 49.248 185.871 129.68h262.128v-351.312z" />
<glyph unicode="&#xe040;" glyph-name="docs" d="M768 960h-352c-35.344 0-64-28.656-64-64h352v-256h256v-512h-224v-64h224c35.344 0 64 28.656 64 64v575.984zM768 704v165.504l165.472-165.504h-165.472zM64 832c-35.344 0-64-28.656-64-64v-768c0-35.344 28.656-64 64-64h544c35.344 0 64 28.656 64 64v575.984l-256 256.016h-352zM608 0h-544v768h288v-256h256v-512zM416 576v165.504l165.472-165.504h-165.472z" />
<glyph unicode="&#xe041;" glyph-name="directions" d="M1017.060 773.936l-99.696 111.343c-6.064 6.848-14.784 10.752-23.937 10.752h-350.256v33.968c0 16.56-14.336 30-32 30s-32-13.44-32-30v-33.968h-255.808c-17.68 0-32-14.32-32-32v-223.664c0-17.68 14.32-32 32-32h255.808v-64.096h-348.592c-9.152 0-17.872-3.904-23.936-10.752l-99.68-113.312c-10.752-12.128-10.752-30.368 0-42.496l99.68-112.288c6.112-6.848 14.784-9.744 23.936-9.744h348.592v-289.68c0-16.56 14.336-30 32-30s32 13.44 32 30v289.68h256.464c17.68 0 32 14.32 32 32v224.608c0 17.68-14.32 32-32 32h-256.464v64.096h350.256c9.152 0 17.872 3.904 23.937 10.752l99.696 112.32c10.736 12.112 10.736 30.352 0 42.481v0.001zM767.647 319.679h-622.688l-71.28 79.28 71.28 81.312h622.688v-160.592zM879.039 672.367h-623.68v159.664h623.68l71.28-79.344z" />
<glyph unicode="&#xe042;" glyph-name="direction" d="M966.912 661.84l-179.121 192c-6.080 6.48-14.544 10.16-23.424 10.16h-267.12l-1.008 66c0 16.56-14.336 30-32 30s-30-13.44-30-30l-0.976-66h-352.768c-17.68 0-32-14.32-32-32v-384c0-17.68 14.32-32 32-32h352.336v-450c0-16.56 14.336-30 32-30s32 13.44 32 30v450h267.536c8.88 0 17.344 3.68 23.408 10.16l179.12 192c11.472 12.304 11.472 31.376 0.016 43.68zM750.463 480h-637.968v320h637.968l149.28-160z" />
<glyph unicode="&#xe043;" glyph-name="diamond" d="M1018.72 664.528l-139.872 267.442c-8.16 15.6-29.264 28.352-46.848 28.352h-321.936c-0.352 0.016-0.703 0.111-1.055 0.127-0.288 0-0.561-0.112-0.849-0.128h-316.16c-17.6 0-38.752-12.72-47.024-28.256l-139.504-262.288c-8.288-15.536-6.624-39.937 3.632-54.257l480.016-669.152c5.152-7.184 12-10.815 18.832-10.815 6.784 0 13.584 3.536 18.768 10.592l487.904 664.256c10.384 14.192 12.256 38.544 4.096 54.128zM942.367 672.371h-171.456l68.656 196.608zM575.343 896.323h205.968l-63.888-182.928zM668.238 672.371h-297.647l140.672 202.096zM313.887 702.915l-64.177 193.408h198.816zM680.75 608.371l-172.032-492.544-163.456 492.544h335.488zM436.926 128.915l-343.936 479.456h184.832zM748.542 608.371h185.168l-352.976-480.56zM188.478 877.587l68.096-205.216h-177.248z" />
<glyph unicode="&#xe044;" glyph-name="cup" d="M832.56 544.208c-8.336 0-35.202 0.16-64.306 0.368l0.112 63.968c0 35.344-28.656 64-64 64l-640.496 0.16c-35.344 0-64-28.656-64-64v-480.944c0-106.032 85.968-192 192-192h384.656c106.032 0 191.008 85.968 191.008 192l0.064 32.848c29.024-0.224 58.608-0.399 64.977-0.399 105.776 0 191.568 85.040 191.568 191.072-0.016 106.048-85.808 192.928-191.584 192.928zM703.533 127.76c0-70.592-56.399-128-127.008-128h-384.656c-70.592 0-128 57.408-128 128l-0.096 480.944 640.592-0.192zM832.559 223.279c-6.352 0-35.888 0.191-64.863 0.399l0.448 256.816c29.12-0.208 56.048-0.368 64.399-0.368 73.12 0 128.624-54.544 128.624-127.84s-55.488-129.008-128.608-129.008zM575.87 736.238c17.664 0 32 14.336 32 32v160c0 17.664-14.336 32-32 32s-32-14.336-32-32v-160c0-17.68 14.336-32 32-32zM191.87 736.238c17.664 0 32 14.336 32 32v160c0 17.664-14.336 32-32 32s-32-14.336-32-32v-160c0-17.68 14.336-32 32-32zM383.87 736.238c17.664 0 32 14.336 32 32v160c0 17.664-14.336 32-32 32s-32-14.336-32-32v-160c0-17.68 14.336-32 32-32z" />
<glyph unicode="&#xe045;" glyph-name="compass" d="M733.184 679.728l-313.15-134.64c-5.664-2.88-10.256-7.472-13.151-13.151l-143.456-289.216c-5.872-11.536-3.744-25.536 5.312-34.784 5.808-5.904 13.632-9.024 21.536-9.024 4.432 0 8.943 0.976 13.119 3.008l305.728 126.976c5.6 2.688 10.224 7.057 13.216 12.497l150.88 296.896c6.432 11.6 4.527 26.031-4.656 35.567-9.216 9.536-23.584 11.872-35.376 5.872zM357.857 295.184l87.008 177.681 87.872-109.984zM584.705 400.384l-88.8 111.152 176.784 69.76zM512.001 960c-282.768 0-512-229.232-512-512 0-282.784 229.232-512 512-512 282.784 0 512 229.216 512 512 0 282.768-229.216 512-512 512zM512.001-1.008c-247.024 0-448 201.984-448 449.009s200.976 448 448 448 448-200.976 448-448-200.976-449.009-448-449.009z" />
<glyph unicode="&#xe046;" glyph-name="call-out" d="M1000.35 188.384c-15.664 11.008-187.059 124.974-208.066 137.806-9.152 5.6-20.32 8.336-32.464 8.336-15.664 0-33.008-4.56-49.936-13.472-16.496-8.688-66.464-37.12-90.912-51.088-21.536 15.12-72.128 53.872-151.84 133.664-79.216 79.184-118.319 130.191-133.535 151.84 13.935 24.432 42.336 74.399 50.976 90.848 16.368 31.008 18.225 61.968 4.944 82.848-12.464 19.68-125.968 191.808-137.68 208-11.024 15.28-30.816 23.536-52.288 23.536-16.944 0-34.912-5.12-50.496-15.968-1.504-1.072-152.096-110.256-150.096-172.352 5.552-174.432 175.056-379.424 316.271-520.688s346.224-310.815 521.344-316.399h1.44c61.312 0 169.088 148.688 170.128 150.16 28.273 40.4 17.969 84.881-7.791 102.929zM956.141 122.733c-40.592-56.224-98.225-114.945-120.784-123.346-120.032 5.632-288.464 111.12-474.88 297.568-186.4 186.464-291.872 354.704-297.44 474.336 8.096 22.624 66.815 80.624 122.527 120.912 4.128 2.848 9.216 4.496 13.968 4.496 1.056 0 1.936-0.096 2.624-0.224 18-26.16 114.624-172.433 132.16-199.776 0.064-2.88-0.911-10.191-6.399-20.623-5.84-11.12-24.032-43.536-49.904-88.88l-20.128-35.28 23.344-33.248c17.408-24.72 58.816-78.464 140.624-160.288 82.16-82.192 135.712-123.473 160.336-140.784l33.248-23.344 35.28 20.16c34.192 19.536 75.504 42.944 88.944 50 10.784 5.68 18.16 6.128 20.16 6.128 0.32 0 0.593 0 0.816-0.032 24.496-15.376 173.937-114.592 200.32-132.688 0.432-2.56 0.031-8.128-4.816-15.088zM683.899 577.724l275.246 273.572-0.88-155.056c-0.288-12.944 9.968-24.192 22.912-23.889l16.416 0.016c12.96 0.32 23.648 8 23.921 20.928l0.656 231.008c0 0.224-0.864 0.384-0.864 0.607l1.264 11.712c0.128 6.496-1.376 12.288-5.6 16.432-4.128 4.176-9.936 6.72-16.384 6.544l-11.696-0.272c-0.224 0-0.399-0.096-0.655-0.128l-229.472 1.024c-12.928-0.288-23.616-10.977-23.92-23.921l-0.032-16.416c1.968-15.232 13.936-24.16 26.88-23.872l151.248-0.4-274.288-272.624c-12.496-12.496-12.496-32.769 0-45.265 12.496-12.481 32.752-12.481 45.248 0z" />
<glyph unicode="&#xe047;" glyph-name="call-in" d="M1000.35 188.384c-15.664 11.008-187.059 124.974-208.066 137.806-9.152 5.6-20.32 8.336-32.464 8.336-15.664 0-33.008-4.56-49.936-13.472-16.496-8.688-66.464-37.12-90.912-51.088-21.536 15.12-72.128 53.872-151.84 133.664-79.216 79.184-118.319 130.191-133.535 151.84 13.935 24.432 42.336 74.399 50.976 90.848 16.368 31.008 18.225 61.968 4.944 82.848-12.464 19.68-125.968 191.808-137.68 208-11.024 15.28-30.816 23.536-52.288 23.536-16.944 0-34.912-5.12-50.496-15.968-1.504-1.072-152.096-110.256-150.096-172.352 5.552-174.432 175.056-379.424 316.271-520.688s346.224-310.815 521.344-316.399h1.44c61.312 0 169.088 148.688 170.128 150.16 28.273 40.4 17.969 84.881-7.791 102.929zM956.141 122.733c-40.592-56.224-98.225-114.945-120.784-123.346-120.032 5.632-288.464 111.12-474.88 297.568-186.4 186.464-291.872 354.704-297.44 474.336 8.096 22.624 66.815 80.624 122.527 120.912 4.128 2.848 9.216 4.496 13.968 4.496 1.056 0 1.936-0.096 2.624-0.224 18-26.16 114.624-172.433 132.16-199.776 0.064-2.88-0.911-10.191-6.399-20.623-5.84-11.12-24.032-43.536-49.904-88.88l-20.128-35.28 23.344-33.248c17.408-24.72 58.816-78.464 140.624-160.288 82.16-82.192 135.712-123.473 160.336-140.784l33.248-23.344 35.28 20.16c34.192 19.536 75.504 42.944 88.944 50 10.784 5.68 18.16 6.128 20.16 6.128 0.32 0 0.593 0 0.816-0.032 24.496-15.376 173.937-114.592 200.32-132.688 0.432-2.56 0.031-8.128-4.816-15.088zM643.836 583.483c4.128-4.176 9.938-6.722 16.386-6.546l11.712 0.272c0.224 0 0.384 0.096 0.64 0.111l229.504-1.008c12.912 0.304 23.616 10.992 23.92 23.937l0.016 16.416c-1.952 15.232-13.937 24.16-26.864 23.872l-151.504 0.4 261.952 261.6c12.496 12.496 12.496 32.769 0 45.265-12.496 12.481-32.752 12.481-45.248 0.001l-262.672-262.32 0.88 154.832c0.288 12.928-9.968 24.191-22.895 23.888l-16.416-0.016c-12.96-0.32-23.664-8.017-23.937-20.944l-0.656-231.008c0-0.224 0.88-0.384 0.88-0.607l-1.28-11.712c-0.128-6.496 1.392-12.273 5.584-16.433z" />
<glyph unicode="&#xe048;" glyph-name="call-end" d="M961.696 760.448c0-1.056-0.097-1.935-0.225-2.623-26.16-18-172.433-114.624-199.776-132.16-2.88-0.064-10.191 0.911-20.623 6.399-11.12 5.84-43.536 24.032-88.88 49.904l-35.28 20.128-33.248-23.344c-24.72-17.408-78.464-58.816-160.288-140.624-82.176-82.16-123.456-135.712-140.768-160.336l-23.344-33.248 20.16-35.28c19.536-34.192 42.944-75.504 50-88.944 5.68-10.784 6.128-18.16 6.128-20.16 0-0.32 0-0.593-0.032-0.816-15.36-24.496-114.593-173.937-132.673-200.32-2.56-0.432-8.128-0.031-15.088 4.816-56.256 40.608-114.96 98.24-123.376 120.8 5.632 120.032 111.12 288.464 297.568 474.88 186.464 186.4 354.72 291.872 474.352 297.44 22.624-8.096 80.624-66.815 120.912-122.527 2.832-4.128 4.48-9.232 4.481-13.985zM1023.7 760.449c0 16.944-5.121 34.914-15.969 50.498-1.056 1.504-108.256 152.096-170.336 150.096-174.432-5.552-379.439-175.056-520.703-316.271-141.232-141.216-310.801-346.224-316.385-521.344v-1.44c0-61.312 148.672-169.088 150.144-170.128 40.4-28.288 84.881-17.968 102.945 7.776 11.008 15.664 124.976 187.056 137.808 208.063 5.6 9.152 8.336 20.32 8.336 32.464 0 15.664-4.576 33.008-13.473 49.936-8.688 16.496-37.119 66.464-51.087 90.912 15.12 21.536 53.872 72.128 133.664 151.84 79.184 79.216 130.191 118.319 151.84 133.535 24.432-13.936 74.399-42.336 90.848-50.976 31.008-16.368 61.968-18.225 82.848-4.944 19.68 12.464 189.808 125.968 206 137.68 15.28 11.056 23.52 30.848 23.52 52.303z" />
<glyph unicode="&#xe049;" glyph-name="calculator" d="M960 960.096h-896c-35.184 0-64-28.816-64-64v-896.192c0-35.184 28.816-64 64-64h896c35.184 0 64 28.816 64 64v896.192c0 35.184-28.816 64-64 64zM960-0.097h-896v896.192h896v-896.192zM224 607.695h64v-64c0-17.664 14.336-32 32-32s32 14.336 32 32v64h64c17.664 0 32 14.336 32 32s-14.336 32-32 32h-64v64c0 17.664-14.336 32-32 32s-32-14.336-32-32v-64h-64c-17.664 0-32-14.336-32-32s14.336-32 32-32zM433.136 368.848c-12.496 12.496-32.752 12.497-45.248 0.001l-67.888-67.872-67.888 67.872c-12.496 12.496-32.752 12.496-45.264 0-12.496-12.496-12.496-32.769 0-45.265l67.872-67.872-67.872-67.872c-12.496-12.496-12.496-32.769 0-45.265s32.752-12.496 45.264 0l67.888 67.856 67.888-67.872c12.496-12.496 32.752-12.496 45.248 0s12.496 32.769 0 45.265l-67.872 67.872 67.872 67.872c12.496 12.512 12.496 32.768 0 45.279zM608 607.696h192c17.664 0 32 14.336 32 32s-14.336 32-32 32h-192c-17.664 0-32-14.336-32-32s14.336-32 32-32zM608 287.696h192c17.664 0 32 14.336 32 32s-14.336 32-32 32h-192c-17.664 0-32-14.336-32-32s14.336-32 32-32zM608 159.696h192c17.664 0 32 14.336 32 32s-14.336 32-32 32h-192c-17.664 0-32-14.336-32-32s14.336-32 32-32z" />
<glyph unicode="&#xe04a;" glyph-name="bubbles" d="M424.816 280.656c230.944 0 409.902 131.903 407.15 327.631 0 173.184-183.216 311.632-414.16 311.632-230.976 0-418.159-138.448-418.159-311.632 0-107.872 52.912-222.88 163.408-279.376 0-0.656-0.192-1.152-0.192-1.872 0-46.88-39.024-111.152-54.4-137.664h0.064c-1.216-2.88-1.952-6-1.952-9.344 0-13.12 10.576-23.664 23.696-23.664 1.936 0 5.088 0.4 6.224 0.4 0.32 0 0.433 0 0.4-0.096 81.664 13.344 202.256 105.248 220.128 127.024 18.336-2.72 30.72-3.151 46.080-3.151 6.528 0.016 13.473 0.111 21.713 0.111zM330.687 349.535l-40.977-34.032c-9.504-10.976-50.8-45.439-86.352-67.808 21.648 61.68 20.704 81.216 20.704 81.216l3.008 39.152-34.88 17.808c-88.672 45.344-128.528 139.744-128.528 222.4 0 137.664 158.864 247.632 354.16 247.632 195.28 0 350.16-109.968 350.16-247.632-0.608-152.608-145.872-264.624-341.152-264.624 0 0-29.808-1.152-60.399 3.376zM1024.33 349.807c0 86.736-33.887 152.881-118.446 202.513-2.064-23.072-8.641-47.824-15.793-69.568 54.656-37.776 70.256-76.561 70.256-132.944 0-69.024-32.16-119.089-106.912-157.345l-31.84-15.808s3.312-82 8.224-102.752c-62.448 45.776-83.904 84-83.904 84l-33.664-5.184c-13.312-1.936-49.312-1.968-49.312-1.968-86.944 0-151.376 20.72-206.336 63.744 14.928 0.912-89.185 0.88-91.505-1.152 63.568-77.632 167.473-126.592 297.841-126.592 7.088 0 13.088-0.064 18.72-0.064 13.28 0 24 0.368 39.84 2.688 15.488-18.784 102.225-101.504 172.816-113.008-0.032 0.064 0.063 0.064 0.367 0.064 0.944 0 3.681-0.336 5.345-0.336 11.344 0 20.496 9.12 20.496 20.464 0 2.88-0.656 5.6-1.681 8.063h0.064c-13.28 22.88-34.128 89.744-34.128 130.256 0 0.624-0.192 1.056-0.192 1.632 95.504 48.832 139.744 120.080 139.744 213.296z" />
<glyph unicode="&#xe04b;" glyph-name="briefcase" d="M960.016 768.528h-255.601v62c0 52.944-43.056 96-96 96h-192.432c-52.944 0-96-43.056-96-96v-62h-255.968c-35.184 0-64-28.816-64-64v-224.256h-0.032v-64h0.032v-382.816c0-35.184 28.816-64 64-64h896c35.184 0 64 28.816 64 64v671.072c0 35.184-28.816 64-64 64h0.001zM383.983 830.528c0 17.664 14.336 32 32 32h192.432c17.664 0 32-14.336 32-32v-62h-256.432zM64.016 704.528h896v-224.256h-352.368v32.752c0 35.28-28.72 64-64 64h-63.744c-35.28 0-64-28.72-64-64v-32.752h-351.888v224.256zM543.695 351.872h-63.809v161.152h63.744zM64.015 33.472v382.816h351.872v-64.4c0-35.28 28.72-64 64-64h63.744c35.28 0 64 28.72 64 64v64.4h352.368v-382.816h-895.984z" />
<glyph unicode="&#xe04c;" glyph-name="book-open" d="M952.080 958.448l-423.041-114.592c-10.752-2.88-34.096-2.848-44.815 0.16l-412.144 114.208c-36.784 10.128-72.416-16.4-72.416-54.273v-778.112c0-32.096 24.336-62.784 55.312-71.408l412.16-114.224c11.024-3.056 25.217-4.752 39.937-4.752 10.096 0 25.008 0.784 38.72 4.528l423.024 114.592c31.056 8.4 55.504 39.024 55.504 71.248v778.128c0.016 37.84-35.616 64.464-72.24 54.496zM479.999 3.057l-408.928 113.056c-3.088 0.848-7.408 6.496-7.408 9.712v768.032l403.472-111.536c3.904-1.088 8.288-1.936 12.864-2.655v-776.608zM960.335 125.824c0-3.152-5.184-8.655-8.256-9.503l-408.080-110.528v775.92c0.592 0.144 1.2 0.224 1.792 0.384l414.528 112.128v-768.4h0.016zM641.999 593.697c2.88 0 5.81 0.367 8.689 1.184l223.936 63.024c17.024 4.816 26.944 22.465 22.16 39.473s-22.561 26.88-39.473 22.16l-223.936-63.024c-17.024-4.816-26.944-22.465-22.16-39.473 3.968-14.128 16.815-23.344 30.783-23.344zM642.001 401.696c2.88 0 5.81 0.368 8.689 1.185l223.936 63.024c17.024 4.816 26.944 22.465 22.16 39.473s-22.561 26.88-39.473 22.16l-223.936-63.024c-17.024-4.816-26.944-22.465-22.16-39.457 3.968-14.128 16.815-23.36 30.783-23.361zM642.003 209.696c2.88 0 5.81 0.368 8.689 1.185l223.936 63.024c17.024 4.816 26.944 22.465 22.16 39.473s-22.561 26.88-39.473 22.16l-223.936-63.024c-17.024-4.816-26.944-22.465-22.16-39.473 3.968-14.112 16.815-23.345 30.783-23.345zM394.629 656.513l-223.934 63.025c-16.912 4.72-34.689-5.152-39.473-22.16s5.12-34.656 22.16-39.473l223.936-63.024c2.88-0.816 5.808-1.185 8.688-1.185 13.968 0 26.815 9.216 30.783 23.344 4.784 16.992-5.12 34.656-22.16 39.473zM394.631 464.514l-223.934 63.025c-16.912 4.72-34.689-5.152-39.473-22.16s5.12-34.656 22.16-39.473l223.936-63.024c2.88-0.816 5.808-1.185 8.688-1.185 13.968 0 26.815 9.216 30.783 23.344 4.784 16.992-5.12 34.656-22.16 39.473zM394.633 272.515l-223.934 63.025c-16.912 4.72-34.689-5.152-39.473-22.16s5.12-34.656 22.16-39.473l223.936-63.024c2.88-0.816 5.808-1.185 8.688-1.185 13.968 0 26.815 9.216 30.783 23.344 4.784 17.008-5.12 34.656-22.16 39.473z" />
<glyph unicode="&#xe04d;" glyph-name="basket-loaded" d="M1015.66 676c-5.968 8.464-15.663 13.502-25.999 13.502h-99.744l-205.136 174.832c-24.976 24.976-65.519 25.008-90.495 0l-201.648-174.832h-82.096l-51.408 177.28c-20.16 69.808-68.065 77.344-87.713 77.344h-137.088c-17.568 0-31.776-14.224-31.776-31.775s14.224-31.775 31.775-31.775h137.056c4.336 0 17.568 0 26.593-31.184l176.848-649.936c3.84-13.712 16.336-23.184 30.592-23.184h431.968c13.408 0 25.376 8.4 29.904 21.024l152.256 449.68c3.504 9.744 2.048 20.592-3.888 29.023zM639.537 819.070l152.032-129.584h-304.112zM815.025 239.807h-385.487l-101.152 386.128h616.096zM752.002 111.871c-44.192 0-80-35.808-80-80s35.808-80 80-80 80 35.808 80 80c0 44.192-35.808 80-80 80zM464.002 111.871c-44.192 0-80-35.808-80-80s35.808-80 80-80 80 35.808 80 80c0 44.192-35.808 80-80 80z" />
<glyph unicode="&#xe04e;" glyph-name="basket" d="M1015.66 676c-5.968 8.464-15.662 13.502-25.998 13.502h-679.136l-51.408 177.28c-20.16 69.808-68.065 77.344-87.713 77.344h-137.072c-17.568 0-31.776-14.224-31.776-31.775s14.224-31.775 31.775-31.775h137.056c4.336 0 17.568 0 26.593-31.184l176.848-649.936c3.84-13.712 16.336-23.184 30.592-23.184h431.968c13.408 0 25.376 8.4 29.904 21.024l152.256 449.68c3.504 9.744 2.048 20.592-3.888 29.023zM815.026 239.806h-385.487l-101.152 386.128h616.096zM752.003 111.87c-44.192 0-80-35.808-80-80s35.808-80 80-80 80 35.808 80 80c0 44.192-35.808 80-80 80zM464.003 111.87c-44.192 0-80-35.808-80-80s35.808-80 80-80 80 35.808 80 80c0 44.192-35.808 80-80 80z" />
<glyph unicode="&#xe04f;" glyph-name="bag" d="M864 801.296h-191.185v61.376c0 52.944-43.056 96-96 96h-127.632c-52.944 0-96-43.056-96-96v-61.376h-193.184c-35.344 0-64-28.656-64-64v-735.968c0-35.344 28.656-64 64-64h704c35.344 0 64 28.656 64 64v735.968c0 35.344-28.656 64-64 64h0.001zM417.184 862.672c0 17.664 14.336 32 32 32h127.632c17.664 0 32-14.336 32-32v-61.376h-191.632v61.376zM864 1.328h-704v735.968h193.184v-65.84s-0.848-31.968 31.809-31.968c36 0 32.192 31.968 32.192 31.968v65.84h191.632v-65.84s-2.128-32.128 31.872-32.128c32 0 32.128 32.128 32.128 32.128v65.84h191.184v-735.968z" />
<glyph unicode="&#xe050;" glyph-name="action-undo" d="M990.064 17.664c-0.336 0-0.72-0.001-1.088 0.031-16.192 0.528-26.4 13.088-27.776 29.216-1.088 11.872-33.968 299.088-482.256 298.784v-183.664c0-12.368-7.12-23.664-18.336-28.944-11.088-5.312-24.432-3.68-33.968 4.225l-414.976 343.776c-7.44 6.096-11.713 15.184-11.681 24.783s4.336 18.687 11.776 24.752l414.96 340.56c9.568 7.808 22.784 9.312 33.937 4.096 11.152-5.312 18.288-16.56 18.288-28.911v-179.632c185.968-5.904 330.992-65.712 424.336-174.976 151.936-177.776 118.031-436.16 116.432-446.912-2.368-15.664-13.872-27.184-29.648-27.184zM446.944 410.191l0.063 0.001c320.224-0.192 442.592-108.32 512.464-203.809-10.224 76.496-40.063 168.72-105.008 244.031-86.336 100.096-225.439 152.848-407.535 152.848-17.68 0-32 14.32-32 32v143.776l-332.432-273.36 332.432-275.904v148.4c0 8.496 3.376 16.656 9.408 22.656 6 5.984 14.128 9.36 22.608 9.36z" />
<glyph unicode="&#xe051;" glyph-name="action-redo" d="M33.935 17.664c0.336 0 0.72-0.001 1.088 0.031 16.192 0.528 26.4 13.088 27.776 29.216 1.088 11.872 32.976 299.088 481.248 298.784l1.008-183.664c0-12.368 7.12-23.664 18.336-28.944 11.088-5.312 24.432-3.68 33.968 4.225l414.976 343.776c7.44 6.096 11.713 15.184 11.681 24.783s-4.336 18.687-11.776 24.752l-414.96 340.56c-9.568 7.808-22.784 9.312-33.937 4.096-11.152-5.312-18.288-16.56-18.288-28.911l-1.008-179.632c-185.952-5.888-329.968-65.712-423.328-174.96-151.936-177.776-118.031-436.16-116.432-446.912 2.368-15.68 13.872-27.199 29.648-27.199zM577.056 410.191h-0.063c-320.208-0.192-442.592-108.32-512.464-203.824 10.224 76.496 40.064 168.72 105.008 244.031 86.336 100.096 225.44 152.848 407.536 152.848 17.68 0 32 14.32 32 32v143.776l332.432-273.344-332.448-275.904v148.4c0 8.496-3.376 16.656-9.408 22.656-5.984 5.984-14.112 9.36-22.593 9.36z" />
<glyph unicode="&#xe052;" glyph-name="wrench" d="M1006.37 744.064c-10.784 4.976-23.582 3.088-32.558-4.848l-161.312-144.896-145.632 149.408 144.192 166.528c7.84 9.056 9.744 21.536 4.864 32.512s-15.664 17.695-27.52 17.695h-8.688c-89.12 0-242.977-7.664-311.664-77.344l-13.856-13.76c-73.28-74.768-86.288-197.376-47.68-290.576l-369.28-376.896c-49.792-50.48-49.792-132.32 0-182.816l45.072-45.696c24.895-25.232 57.535-37.856 90.175-37.856 32.624 0 65.264 12.624 90.144 37.856l374.72 377.728c35.44-19.152 84-31.664 124.784-31.664 65.376 0 127.344 26.368 174.527 74.256l13.664 13.84c74.608 75.648 73.456 237.297 73.792 308.417 0.032 12.096-6.928 23.088-17.743 28.112zM905.666 450.992l-11.873-13.871c-35.744-36.272-82.496-53.648-131.664-53.648-24.32 0-57.088 4.576-79.216 13.792-20 8.304-38.576 20.288-55.2 35.424l-410.176-413.616c-12.032-12.224-28.032-18.943-45.057-18.943s-33.040 6.72-45.088 18.943l-45.056 45.68c-24.864 25.216-24.864 66.224-0.017 91.439l400.784 408.864c-13.44 19.568-22.593 40.897-28.049 62.977h-0.016c-15.424 62.384-6.432 148.607 42.017 198.048l13.792 13.92c41.552 42.16 149.456 54.624 209.2 58.304l-117.36-135.536c-10.496-12.128-9.968-30.4 1.216-41.872l185.536-190.336c11.248-11.584 29.44-12.256 41.553-1.52l130.608 117.632c-3.888-63.36-16.191-155.376-55.935-195.68z" />
<glyph unicode="&#xe053;" glyph-name="umbrella" d="M1024.32 450.416c0-17.664-14.29-31.984-31.97-31.984h-448.88v-324.192c0-87.152-70.912-158.080-158.096-158.080s-158.111 70.928-158.111 158.080c0 17.664 14.32 31.984 31.984 31.984s31.984-14.32 31.984-31.984c0-51.904 42.224-94.128 94.159-94.128 51.92 0 94.16 42.224 94.16 94.128v324.192h-447.888c-17.664 0-31.984 14.336-31.984 31.984 0 247.296 180.912 404.112 479.856 414.48v62.976c0 17.664 14.32 31.968 31.984 31.968 17.68 0 31.968-14.32 31.968-31.969v-62.976c299.008-10.352 480.832-167.184 480.833-414.479zM959.15 482.384c-15.776 200.528-178.896 319.119-447.648 319.119s-430.896-118.592-446.655-319.104l894.304-0.016z" />
<glyph unicode="&#xe054;" glyph-name="trash" d="M896.8 800.976l-225.277-0.001v87.264c0 40.528-33.008 72.496-73.536 72.496h-171.984c-40.528 0-73.52-31.968-73.52-72.496v-87.264h-225.28c-17.664 0-32-14.336-32-32s14.336-32 32-32h44.016l74.24-739.92c3.104-34.624 32.607-61.776 67.136-61.776h398.8c34.528 0 64 27.152 67.088 61.473l74.304 740.24h44.016c17.68 0 32 14.336 32 32s-14.32 31.984-32 31.984zM416.482 888.238c0 5.232 4.271 9.505 9.52 9.505h171.984c5.248 0 9.536-4.272 9.536-9.505v-87.264h-191.040zM714.77 2.798c-0.16-1.776-2.256-3.536-3.376-3.536h-398.8c-1.12 0-3.232 1.744-3.425 3.84l-73.632 733.856h552.912z" />
<glyph unicode="&#xe055;" glyph-name="tag" d="M1023.98 543.728l-0.001 338.367c0 42.944-34.944 77.904-77.872 77.904h-345.376c-21.68 0-54.496 0-75.92-21.44l-505.936-505.952c-12.16-12.16-18.88-28.304-18.88-45.487 0-17.216 6.688-33.376 18.849-45.536l386.8-386.72c12.112-12.176 28.272-18.864 45.456-18.864s33.359 6.688 45.487 18.849l505.952 505.968c21.696 21.648 21.568 52.816 21.441 82.912zM957.295 506.062l-506.417-505.936-386.752 387.216 505.392 505.504c5.088 3.152 23.408 3.152 30.992 3.152l14.4-0.048 331.2 0.048c7.664 0 13.872-6.24 13.872-13.904v-338.624c0.064-12.176 0.129-32.544-2.688-37.408zM768.014 831.999c-70.688 0-128-57.312-128-128s57.312-128 128-128c70.688 0 128 57.312 128 128s-57.312 128-128 128zM768.014 639.999c-35.344 0-64 28.656-64 64s28.656 64 64 64 64-28.656 64-64-28.656-64-64-64z" />
<glyph unicode="&#xe056;" glyph-name="support" d="M512 960c-282.768 0-512-229.232-512-512s229.232-512 512-512 512 229.232 512 512-229.232 512-512 512zM640 877.024c144.224-42.992 257.648-156.8 300.704-301.023h-207.568c-22.416 38.528-54.592 70.672-93.136 93.056zM703.633 447.792c0-105.936-85.792-191.808-191.632-191.808s-191.632 85.872-191.632 191.808 85.808 191.823 191.632 191.823c105.824 0 191.632-85.888 191.632-191.823zM448.001 891.072c20.912 2.992 42.256 4.624 64 4.624 21.727 0 43.088-1.632 64-4.624v-195.808c-20.481 5.296-41.856 8.399-64 8.399s-43.504-3.104-64-8.399v195.808zM384.001 877.024v-207.968c-38.56-22.384-70.72-54.544-93.136-93.056h-207.568c43.040 144.224 156.48 258.031 300.704 301.024zM64.305 447.841c0 21.824 1.855 43.169 4.88 64.161h195.392c-5.312-20.512-8.239-41.983-8.239-64.176 0-22.065 2.912-43.425 8.16-63.825h-195.36c-2.976 20.88-4.832 42.144-4.832 63.84zM384 18.674c-144.336 43.008-257.807 156.977-300.799 301.328h207.472c22.432-38.656 54.655-70.944 93.327-93.393v-207.936zM576.001 4.627c-20.912-2.992-42.273-4.624-64-4.624-21.744 0-43.088 1.648-64 4.624v195.776c20.496-5.296 41.856-8.399 64-8.399s43.519 3.104 64 8.399v-195.776zM640.001 18.675v207.936c38.656 22.448 70.897 54.736 93.313 93.393h207.472c-42.992-144.336-156.464-258.32-300.784-301.328zM759.505 384.002c5.248 20.4 8.16 41.761 8.16 63.825 0 22.192-2.928 43.664-8.256 64.176h195.408c3.008-20.992 4.88-42.336 4.88-64.16 0-21.696-1.84-42.977-4.832-63.841h-195.36z" />
<glyph unicode="&#xe057;" glyph-name="size-fullscreen" d="M685.904 576.816l275.264 273.572-0.896-155.072c-0.288-12.928 9.968-24.176 22.912-23.888l16.416 0.016c12.944 0.304 23.648 8 23.921 20.928l0.672 231.008c0 0.224-0.88 0.399-0.88 0.623l1.264 11.712c0.128 6.496-1.392 12.288-5.584 16.432-4.144 4.176-9.951 6.72-16.399 6.544l-11.696-0.272c-0.224 0-0.399-0.080-0.64-0.112l-229.488 1.008c-12.928-0.288-23.632-10.977-23.92-23.921l-0.032-16.416c1.968-15.248 13.952-24.16 26.88-23.872l151.248-0.4-274.288-272.624c-12.496-12.496-12.496-32.752 0-45.264 12.496-12.481 32.752-12.481 45.247 0zM339.088 319.188l-275.263-272.72 0.88 154.224c0.304 12.944-9.969 24.192-22.897 23.904l-17.424-0.032c-12.96-0.32-23.648-8-23.921-20.944l-0.672-231.008c0-0.224 0.88-0.367 0.88-0.623l-1.264-11.68c-0.144-6.496 1.376-12.32 5.584-16.433 4.128-4.192 9.952-6.721 16.384-6.561l11.712 0.288c0.224 0 0.384 0.096 0.64 0.096l230.496-1.008c12.928 0.32 23.616 11.009 23.92 23.937l0.032 16.432c-1.968 15.216-13.952 24.16-26.88 23.872l-151.248 0.4 274.272 272.592c12.496 12.496 12.496 32.752 0 45.248s-32.736 12.512-45.232 0.016zM1024.21-27.371l-0.672 231.009c-0.288 12.944-10.992 20.624-23.92 20.944l-16.416 0.032c-12.944 0.288-23.185-10.976-22.912-23.903l0.896-155.072-275.28 273.552c-12.496 12.496-32.752 12.496-45.248 0s-12.496-32.752 0-45.248l274.272-272.592-151.232-0.4c-12.928 0.288-24.912-8.656-26.88-23.872l0.032-16.432c0.304-12.944 11.008-23.633 23.92-23.937l229.504 1.008c0.24 0 0.416-0.096 0.64-0.096l11.696-0.288c6.448-0.16 12.273 2.368 16.4 6.561 4.192 4.128 5.696 9.936 5.584 16.432l-1.264 11.68c0 0.256 0.88 0.399 0.88 0.623zM110.049 894.678l151.264 0.397c12.928-0.288 24.912 8.64 26.88 23.872l-0.032 16.432c-0.32 12.944-11.009 23.648-23.921 23.921l-230.512-0.992c-0.256 0.032-0.416 0.112-0.64 0.112l-11.712 0.272c-6.432 0.176-12.271-2.368-16.384-6.544-4.208-4.144-5.728-9.936-5.584-16.432l1.264-11.712c0-0.224-0.88-0.384-0.88-0.624l0.672-231.008c0.288-12.928 10.977-20.624 23.921-20.928l17.424-0.016c12.928-0.288 23.184 10.96 22.895 23.888l-0.88 154.224 275.264-272.72c12.481-12.496 32.753-12.496 45.249 0s12.496 32.769 0 45.265z" />
</font>
</defs>
</svg>
